<?xml version="1.0" standalone="no"?>
<!DOCTYPE svg PUBLIC "-//W3C//DTD SVG 1.1//EN" "http://www.w3.org/Graphics/SVG/1.1/DTD/svg11.dtd" >
<svg xmlns="http://www.w3.org/2000/svg">
<metadata>Generated by IcoMoon</metadata>
<defs>
<font id="icomoon" horiz-adv-x="1024">
<font-face units-per-em="1024" ascent="960" descent="-64" />
<missing-glyph horiz-adv-x="1024" />
<glyph unicode="&#x20;" horiz-adv-x="512" d="" />
<glyph unicode="&#xe900;" glyph-name="all" d="M512 874.667c-235.838 0-426.667-190.86-426.667-426.667 0-235.84 190.864-426.667 426.667-426.667 235.836 0 426.667 190.861 426.667 426.667 0 235.84-190.865 426.667-426.667 426.667zM436.706 322.509h-50.196v75.294h-50.196v-75.294h-50.196v175.689c0 41.514 33.779 75.293 75.294 75.293 41.519 0 75.294-33.779 75.294-75.293v-175.689zM612.39 322.509h-125.487v250.982h50.193v-200.784h75.294v-50.197zM788.079 322.509h-125.491v250.982h50.197v-200.784h75.294v-50.197zM361.412 523.294c-13.838 0-25.098-11.26-25.098-25.097v-50.197h50.196v50.197c0 13.837-11.259 25.097-25.098 25.097z" />
<glyph unicode="&#xe901;" glyph-name="all-1" d="M393.846 832h-177.231c-48.941 0-88.615-39.674-88.615-88.615v-177.231c0-48.94 39.674-88.616 88.615-88.616h177.231c48.94 0 88.616 39.676 88.616 88.616v177.231c0 48.941-39.676 88.615-88.616 88.615zM807.386 832h-177.233c-48.939 0-88.614-39.674-88.614-88.615v-177.231c0-48.94 39.676-88.616 88.614-88.616h177.233c48.939 0 88.614 39.676 88.614 88.616v177.231c0 48.941-39.676 88.615-88.614 88.615zM393.846 418.462h-177.231c-48.941 0-88.615-39.676-88.615-88.614v-177.233c0-48.939 39.674-88.614 88.615-88.614h177.231c48.94 0 88.616 39.676 88.616 88.614v177.233c0 48.939-39.676 88.614-88.616 88.614zM718.771 64c97.882 0 177.229 79.347 177.229 177.229 0 97.886-79.347 177.233-177.229 177.233-97.886 0-177.233-79.347-177.233-177.233 0-97.882 79.347-177.229 177.233-177.229z" />
<glyph unicode="&#xe902;" glyph-name="arrow-down" d="M858.667 343.612l-56.457 51.917-248.61-231.066v710.204h-83.2v-710.204l-248.61 231.066-56.457-51.917 346.667-322.278 346.667 322.278z" />
<glyph unicode="&#xe903;" glyph-name="arrow-left" d="M407.61 101.333l51.919 56.457-231.065 248.61h710.203v83.2h-710.203l231.065 248.61-51.919 56.457-322.277-346.667 322.277-346.667z" />
<glyph unicode="&#xe904;" glyph-name="arrow-right" d="M616.388 794.667l-51.917-56.457 231.066-248.61h-710.204v-83.2h710.204l-231.066-248.61 51.917-56.457 322.278 346.667-322.278 346.667z" />
<glyph unicode="&#xe905;" glyph-name="arrows-clockwise" d="M170.667 516.267v273.067l100.25-100.25c63.249 63.522 148.958 100.25 241.084 100.25 188.211 0 341.333-153.122 341.333-341.333s-153.122-341.333-341.333-341.333c-142.473 0-271.223 89.805-320.41 223.437-6.519 17.715 2.56 37.342 20.241 43.827 17.647 6.451 37.308-2.526 43.827-20.241 39.356-106.94 142.37-178.756 256.341-178.756 150.562 0 273.067 122.505 273.067 273.067s-122.505 273.067-273.067 273.067c-73.694 0-142.234-29.389-192.887-80.179l124.621-124.621h-273.067z" />
<glyph unicode="&#xe906;" glyph-name="arrow-up" d="M165.333 552.39l56.457-51.919 248.61 231.065v-710.203h83.2v710.203l248.61-231.065 56.457 51.919-346.667 322.277-346.667-322.277z" />
<glyph unicode="&#xe907;" glyph-name="arrow-up-right" d="M759.245 254.025c14.037 0.009 26.765 5.722 35.981 14.938 9.212 9.212 14.925 21.939 14.933 35.977l0.508 390.942c0.043 28.085-22.703 50.829-50.786 50.786l-390.943-0.507c-28.076-0.019-50.895-22.837-50.916-50.915-0.044-28.084 22.7-50.828 50.784-50.784l273.963 0.347-415.441-415.44c-18.484-18.483-18.684-48.252-0.448-66.487s48.002-18.035 66.486 0.448l415.442 415.441-0.35-273.963c-0.043-28.087 22.699-50.829 50.786-50.782z" />
<glyph unicode="&#xe908;" glyph-name="arrow-up-right-bold" d="M512 874.667c-84.386 0-166.878-25.024-237.043-71.906s-124.852-113.519-157.145-191.482c-32.294-77.962-40.743-163.752-24.28-246.517s57.099-158.788 116.77-218.462c59.67-59.669 135.695-100.305 218.46-116.77 82.765-16.461 168.555-8.013 246.515 24.282 77.965 32.294 144.602 86.98 191.484 157.146s71.906 152.657 71.906 237.043c-0.119 113.123-45.111 221.577-125.099 301.567-79.991 79.989-188.446 124.98-301.568 125.1zM676.105 382.357c0-8.704-3.46-17.050-9.613-23.206-6.157-6.153-14.507-9.613-23.211-9.613s-17.050 3.46-23.206 9.613c-6.157 6.157-9.613 14.502-9.613 23.206v117.705l-206.523-206.566c-3.049-3.046-6.669-5.466-10.653-7.117s-8.255-2.5-12.567-2.5c-4.312 0-8.583 0.849-12.567 2.5s-7.604 4.070-10.654 7.117c-3.049 3.051-5.468 6.673-7.119 10.654-1.65 3.985-2.5 8.256-2.5 12.57s0.849 8.58 2.5 12.565c1.65 3.985 4.069 7.603 7.119 10.654l206.564 206.523h-117.705c-8.704 0-17.050 3.458-23.206 9.613-6.155 6.155-9.613 14.503-9.613 23.207s3.458 17.053 9.613 23.208c6.156 6.155 14.502 9.613 23.206 9.613h196.924c8.704 0 17.054-3.458 23.211-9.613 6.153-6.155 9.613-14.503 9.613-23.208v-196.925z" />
<glyph unicode="&#xe909;" glyph-name="avatar" d="M329.603 817.108c-50.306-11.18-92.118-30.266-124.281-62.429s-51.249-73.975-62.429-124.281c-11.083-49.871-14.892-110.372-14.892-182.397s3.809-132.527 14.892-182.396c11.18-50.308 30.266-92.117 62.429-124.284 32.163-32.162 73.975-51.247 124.281-62.43 49.871-11.081 110.372-14.891 182.397-14.891s132.527 3.81 182.396 14.891c50.308 11.183 92.117 30.268 124.284 62.43 32.162 32.166 51.247 73.975 62.43 124.284 11.081 49.869 14.891 110.37 14.891 182.396s-3.81 132.527-14.891 182.397c-11.183 50.306-30.268 92.118-62.43 124.281-32.166 32.163-73.975 51.249-124.284 62.429-49.869 11.083-110.37 14.892-182.396 14.892s-132.527-3.809-182.397-14.892zM512 678.4c84.83 0 153.6-68.769 153.6-153.6s-68.77-153.6-153.6-153.6-153.6 68.77-153.6 153.6c0 84.831 68.77 153.6 153.6 153.6zM756.894 244.702c13.551-22.093 8.755-51.294-13.077-65.25-19.853-12.698-43.051-20.467-66.086-25.587-41.613-9.246-95.462-13.065-165.739-13.065-70.272 0-124.122 3.819-165.733 13.065-22.604 5.022-45.379 12.591-64.992 24.875-22.228 13.922-27.113 43.524-13.231 65.775 15.985 25.626 38.017 45.76 67.664 60.083 44.982 21.734 103.943 28.203 176.284 28.203 72.098 0 130.995-5.943 175.915-27.059 30.413-14.298 52.86-34.722 68.996-61.039z" />
<glyph unicode="&#xe90a;" glyph-name="baccarat" d="M327.662 756.785c0 3.337-1.631 4.866-5.19 4.866h-19.872c-3.559 0-5.19-1.529-5.19-4.866v-24.608c0-3.337 1.631-4.866 5.19-4.866h25.211v29.475h-0.148zM224 832v-768h576v768h-576zM290.883 698.81c-18.241 0-28.325 9.454-28.325 26.554v38.372c0 17.101 10.084 26.555 28.325 26.555h43.008c18.241 0 28.325-9.454 28.325-26.555v-85.503c0-17.101-10.084-26.554-28.325-26.554h-54.426l-16.758 28.501h59.617c3.559 0 5.191 1.529 5.191 4.866v13.764h-36.631zM304.972 546.294c-15.127-11.54-37.224-4.032-41.228 14.181-0.742 3.198-0.741 6.673 0.297 9.871 1.78 6.256 8.008 12.652 14.533 18.491 3.115 2.781 6.229 5.283 9.195 7.924 8.898 7.786 18.834 16.962 25.211 26.694 6.525-9.593 16.313-18.908 25.211-26.694 2.966-2.641 6.080-5.144 9.195-7.924 6.525-5.839 12.754-12.235 14.534-18.491 0.89-3.198 1.038-6.673 0.297-9.871-4.004-18.213-26.101-25.72-41.228-14.181-1.78 1.39-3.411 2.92-4.894 4.727 4.597-10.010 10.974-16.962 20.169-20.158v-5.286h-46.566v5.286c9.195 3.197 15.572 10.009 20.169 20.158-1.483-1.807-3.115-3.337-4.894-4.727zM701.082 323.012c-15.275-70.071-100.1-98.991-158.532-54.498-6.967 5.419-13.346 11.401-18.833 18.074 17.647-38.652 42.415-65.207 77.709-77.44v-20.301h-178.851v20.301c35.294 12.233 60.062 38.647 77.709 77.44-5.487-6.673-11.866-12.791-18.833-18.074-58.431-44.493-143.259-15.573-158.534 54.498-2.966 12.514-2.67 25.583 0.89 38.093 6.97 24.192 30.698 48.661 56.058 71.185 12.012 10.705 23.728 20.574 35.148 30.588 34.111 29.888 72.221 65.481 96.989 102.463 24.768-37.119 62.878-72.712 96.99-102.463 11.418-10.014 23.134-20.023 35.145-30.588 25.361-22.524 49.088-46.993 56.060-71.185 3.558-12.51 3.857-25.579 0.887-38.093z" />
<glyph unicode="&#xe90b;" glyph-name="ban-ca" d="M686.566 305.353c-148.442 23.394-264.363-95.846-296.040-132.446 48.287-41.212 110.768-66.249 179.069-66.249 102.4 0 194.21 56.38 241.873 143.083-38.345 29.786-80.286 48.58-124.902 55.612zM518.558 683.946l12.023 97.52c-85.218 22.797-152.545-3.843-205.039-81.288l83.123-57.939c33.003 20.57 70.123 34.967 109.893 41.707zM652.267 437.824c20.791 0 37.649 16.853 37.649 37.645s-16.858 37.645-37.649 37.645c-20.787 0-37.645-16.853-37.645-37.645s16.858-37.645 37.645-37.645zM270.909 319.253c-4.396 20.599-6.813 41.911-6.813 63.791 0 32.491 5.197 63.761 14.645 93.154l-120.041 65.594c-72.539-95.41-72.597-192.741-0.189-296.899l112.398 74.359zM858.795 401.037h34.18c0.947 0.188 1.822 0.567 2.812 0.567 13.116 0 23.799 10.671 23.799 23.804 0 13.129-10.671 23.787-23.799 23.787h-46.818c-6.477 0-12.186 4.292-13.99 10.522-33.92 117.597-143.040 199.729-265.365 199.729-152.402 0-276.388-123.985-276.388-276.389 0-73.587 29.086-140.373 76.135-189.943 36.015 41.911 158.661 166.784 321.746 141.018 46.831-7.394 92.484-27.179 133.129-57.412 4.992 12.006 9.374 24.384 12.693 37.278 1.66 6.434 7.454 10.918 14.093 10.918h44.766c13.116 0 23.799 10.671 23.799 23.787 0 12.476-9.694 22.639-21.922 23.612-0.64-0.085-1.212-0.375-1.877-0.375h-36.992c-8.034 0-14.558 6.519-14.558 14.558 0 8.034 6.524 14.541 14.558 14.541zM652.267 408.708c-36.813 0-66.756 29.943-66.756 66.761s29.943 66.761 66.756 66.761c36.817 0 66.761-29.944 66.761-66.761s-29.943-66.761-66.761-66.761z" />
<glyph unicode="&#xe90c;" glyph-name="bank" d="M166.417 130.782h691.2v-66.782h-691.2v66.782zM442.897 197.564v-33.391h138.24v33.391h-34.56v166.959h34.56v33.391h-138.24v-33.391h34.56v-166.959h-34.56zM667.537 197.564v-33.391h138.24v33.391h-34.56v166.959h34.56v33.391h-138.24v-33.391h34.56v-166.959h-34.56zM218.257 197.564v-33.391h138.24v33.391h-34.56v166.959h34.56v33.391h-138.24v-33.391h34.56v-166.959h-34.56zM665.809 574.052c-54.78-73.628-127.526-59.27-15.552-59.27 4.582 0 8.977-1.758 12.22-4.89 3.238-3.132 5.060-7.377 5.060-11.806s-1.822-8.674-5.060-11.806c-3.243-3.132-7.637-4.89-12.22-4.89h-276.48c-4.583 0-8.978 1.758-12.219 4.89s-5.061 7.377-5.061 11.806c0 4.429 1.821 8.674 5.061 11.806s7.636 4.89 12.219 4.89h58.923c-29.757 13.060-55.397 33.51-74.302 59.27l-191.981-92.661v-50.086h691.2v50.086l-191.808 92.661zM512.017 531.477c30.758 0 60.826 8.814 86.4 25.324 25.579 16.511 45.513 39.979 57.28 67.435 11.772 27.456 14.852 57.669 8.853 86.817-6.003 29.148-20.813 55.921-42.564 76.936s-49.459 35.325-79.629 41.123c-30.17 5.798-61.44 2.822-89.856-8.551-28.417-11.373-52.706-30.632-69.795-55.343s-26.21-53.762-26.21-83.48c0-39.852 16.385-78.071 45.551-106.251 29.167-28.179 68.724-44.011 109.969-44.011zM529.297 665.044h-34.56c-13.747 0-26.935 5.277-36.655 14.67-9.724 9.393-15.185 22.133-15.185 35.417s5.461 26.024 15.185 35.417c9.719 9.393 22.908 14.67 36.655 14.67v16.696c0 4.428 1.822 8.675 5.060 11.805 3.243 3.131 7.637 4.89 12.22 4.89s8.977-1.759 12.22-4.89c3.238-3.131 5.060-7.377 5.060-11.805v-16.696h34.56c4.582 0 8.977-1.759 12.22-4.89 3.238-3.131 5.060-7.377 5.060-11.805s-1.822-8.675-5.060-11.806c-3.243-3.131-7.637-4.89-12.22-4.89h-69.12c-4.582 0-8.977-1.759-12.22-4.89-3.238-3.131-5.060-7.377-5.060-11.805s1.822-8.675 5.060-11.806c3.243-3.131 7.637-4.89 12.22-4.89h34.56c13.747 0 26.935-5.277 36.655-14.67 9.724-9.393 15.185-22.133 15.185-35.417s-5.461-26.024-15.185-35.417c-9.719-9.393-22.908-14.67-36.655-14.67v-16.696c0-4.428-1.822-8.675-5.060-11.805-3.243-3.131-7.637-4.89-12.22-4.89s-8.977 1.759-12.22 4.89c-3.238 3.131-5.060 7.377-5.060 11.805v16.696h-34.56c-4.582 0-8.977 1.759-12.22 4.89-3.238 3.131-5.060 7.377-5.060 11.805s1.822 8.675 5.060 11.806c3.243 3.131 7.637 4.89 12.22 4.89h69.12c4.582 0 8.977 1.759 12.22 4.89 3.238 3.131 5.060 7.377 5.060 11.805s-1.822 8.675-5.060 11.805c-3.243 3.131-7.637 4.89-12.22 4.89z" />
<glyph unicode="&#xe90d;" glyph-name="bau-cua" d="M672.23 392.068c4.151-21.303 5.85-43.017 5.052-64.713 19.319-2.505 38.865 2.445 54.656 13.841 6.396-2.641 13.282-3.895 20.203-3.686s13.717 1.877 19.942 4.902c11.682 6.933 20.634 17.66 25.361 30.391-2.338 0.282-4.681 0.751-6.831 1.216-13.491 3.149-26.206 8.99-37.38 17.169s-20.582 18.53-27.661 30.43c-7.923-7.091-13.641-16.307-16.469-26.556-12.373 1.182-24.853 0.171-36.873-2.995zM750.182 432.375c6.178-9.545 14.443-17.557 24.175-23.433 9.732-5.879 20.676-9.468 32-10.492 11.324-1.028 22.737 0.533 33.37 4.565 10.628 4.028 20.207 10.423 27.998 18.701 50.735 53.905 27.098 143.771-22.835 192.827-2.266 2.856-6.805 2.026-6.549-1.871 0.094-0.093 1.779-15.991 2.244-32.356 2.786-29.475-19.366-42.461-27.046-67.426-5.645 12.898-15.962 22.768-20.587 36.098-3.085 9.733-3.93 20.035-2.47 30.14s5.184 19.749 10.893 28.214c0.367 0.598 0.521 1.302 0.435 1.999s-0.401 1.343-0.905 1.836c-81.037-10.691-89.020-122.375-50.722-178.802zM619.729 670.465c13.777 5.009 26.129 13.299 35.977 24.151s16.9 23.942 20.548 38.132c0.277 0.628 0.354 1.328 0.213 2.001-0.137 0.673-0.486 1.285-0.994 1.75-0.503 0.465-1.143 0.759-1.826 0.841s-1.374-0.053-1.98-0.385c-8.491-5.658-18.142-9.351-28.245-10.807-10.099-1.456-20.403-0.64-30.148 2.391-13.406 4.789-23.147 14.755-36.028 20.667 8.828 2.434 17.033 6.74 24.047 12.625 12.143 10.022 27.605 15.127 43.332 14.308 16.375-0.468 32.286-2.151 32.38-2.245 3.891-0.21 4.672 4.44 1.775 6.64-28.749 28.314-66.125 46.248-106.214 50.966-53.235 5.125-113.993-29.535-110.336-86.69 4.058-72.030 99.226-93.663 157.5-74.345zM481.604 664.107c-11.883 7.683-22.007 17.784-29.717 29.644-7.706 11.86-12.826 25.212-15.014 39.183-6.519-1.987-12.556-5.299-17.733-9.727s-9.382-9.878-12.352-16.006c-2.97-6.129-4.64-12.805-4.906-19.609s0.877-13.59 3.359-19.932c-11.422-15.805-16.346-35.383-13.758-54.707 21.68 0.732 43.376-0.994 64.666-5.144 3.174 12.071 4.186 24.608 2.995 37.033 9.22 2.383 34.078 15.596 22.46 19.265zM659.878 92.258l13.568 37.124c4.049 3.904-2.573 67.281-2.15 73.412-0.166 3.678-1.165 7.266-2.914 10.505s-4.207 6.042-7.194 8.196c-12.501 9.114-36.954 27.204-49.225 36.288 63.765 40.567 38.025 141.931 10.483 196.57l9.916 5.794c1.502 0.875 2.816 2.035 3.87 3.418 1.050 1.387 1.818 2.961 2.257 4.642 0.439 1.677 0.542 3.43 0.303 5.15s-0.815 3.375-1.698 4.873c-0.883 1.493-2.048 2.803-3.439 3.844-1.387 1.045-2.97 1.805-4.651 2.236-1.685 0.431-3.435 0.529-5.154 0.282s-3.375-0.832-4.868-1.719l-10.108-5.982c-17.873 26.829-40.905 49.843-67.755 67.704l5.99 10.1c0.887 1.498 1.468 3.156 1.715 4.88 0.243 1.723 0.149 3.479-0.286 5.164s-1.195 3.27-2.244 4.662c-1.045 1.391-2.355 2.563-3.857 3.448s-3.162 1.466-4.885 1.709c-1.724 0.243-3.482 0.144-5.167-0.291-1.69-0.436-3.273-1.199-4.663-2.246s-2.564-2.359-3.447-3.86l-5.803-9.912c-54.63 27.512-156.069 53.092-196.615-10.566l-16.565 22.348-19.746 26.839c-2.15 2.99-4.953 5.453-8.195 7.203s-6.84 2.74-10.522 2.897c-6.182-0.362-68.663 6.041-73.369 2.246l-37.807-13.841c-15.329-4.965-17.101-26.848-20.962-39.838-0.825-3.366-0.291-6.922 1.487-9.898s4.656-5.133 8.012-6.005c3.357-0.873 6.922-0.39 9.925 1.344s5.203 4.579 6.123 7.92l5.895 22.162 35.936 13.279 62.139-3.18c10.704-14.373 32.477-44.273 42.861-58.168-6.551-11.597-12.353-22.63-17.501-33.199l-21.431 16.367c-8.819 6.946-19.747 10.675-30.976 10.569-24.42 3.9-53.112 7.902-78.609-10.662l-26.203-23.194c-2.573-2.321-4.129-5.564-4.33-9.020-0.201-3.46 0.968-6.861 3.255-9.463 2.287-2.607 5.508-4.207 8.966-4.459 3.459-0.247 6.877 0.87 9.516 3.119l25.641 22.63c20 13.978 47.921 5.461 72.246 2.991l9.452-7.386 21.991-16.926c-2.997-8.789-5.312-17.792-6.925-26.935-14.325 8.896-32.763 3.695-49.037 4.493-27.359-0.367-70.014-46.135-50.723-87.347 1.768-2.991 4.642-5.167 8.001-6.059s6.935-0.431 9.955 1.289c3.021 1.719 5.245 4.553 6.193 7.898 0.947 3.341 0.542 6.921-1.128 9.967-6.621 17.634 12.198 45.525 29.478 47.787 10.232 0.853 22.040 0.098 32.006 0.371l12.353-9.536c-0.642-106.223 94.866-201.929 201.389-201.058l9.267-11.503c-0.171-10.756 0.316-22.046-0.188-32.73-2.97-9.946-9.489-18.449-18.325-23.898-8.832-5.449-19.366-7.462-29.589-5.658-3.038 1.698-6.622 2.133-9.978 1.207-3.355-0.922-6.211-3.132-7.947-6.148-1.736-3.012-2.213-6.592-1.328-9.954s3.062-6.242 6.058-8.013c26.11-15.057 58.208 6.921 62.325 9.911 28.757 20.971 26.065 46.046 25.451 75.187 0 5.218-1.673 10.295-4.77 14.494 9.109 1.698 18.086 4.045 26.859 7.014 4.228-5.367 19.977-25.387 24.145-30.673 2.871-24.994 11.405-52.433-2.807-73.131l-22.554-25.527c-2.24-2.654-3.349-6.076-3.093-9.54 0.26-3.46 1.869-6.682 4.476-8.973 2.611-2.291 6.016-3.465 9.485-3.273s6.724 1.732 9.067 4.297l23.113 26.278c18.778 25.323 14.46 54.255 10.671 78.741-0.171 9.28-2.65 18.377-7.206 26.462-1.677 2.133-17.818 22.916-19.934 25.719 10.667 5.047 21.803 10.94 33.314 17.579 13.871-10.155 43.797-32.179 57.835-42.453l3.558-62.097-13.197-36.378-22.272-5.798c-3.345-0.943-6.182-3.162-7.906-6.174-1.728-3.012-2.197-6.583-1.314-9.941s3.051-6.238 6.033-8.013c2.987-1.779 6.549-2.317 9.924-1.493 12.8 4.058 35.482 5.406 40.055 21.508zM452.032 257.502c-32.706 5.193-62.882 20.727-86.097 44.326-2.415 2.492-3.751 5.837-3.722 9.306s1.421 6.788 3.877 9.242c2.455 2.453 5.777 3.844 9.25 3.874s6.817-1.306 9.313-3.721c19.013-19.418 43.734-32.26 70.559-36.655 3.456-0.474 6.588-2.287 8.721-5.043 2.129-2.761 3.093-6.246 2.675-9.707-0.418-3.465-2.18-6.622-4.907-8.794-2.726-2.176-6.199-3.191-9.668-2.829zM527.552 269.564c-10.389-3.639-22.417-12.51-31.821-3.742-1.587 1.626-2.731 3.631-3.324 5.824-0.593 2.197-0.61 4.506-0.060 6.707 0.555 2.202 1.664 4.228 3.221 5.884 1.562 1.651 3.516 2.88 5.687 3.563 10.53 3.004 25.835 13.939 32.939-0.751 1.361-3.209 1.429-6.818 0.192-10.074-1.237-3.26-3.686-5.914-6.835-7.411z" />
<glyph unicode="&#xe90e;" glyph-name="bell" d="M748.271 346.726v154.633c0 100.154-61.039 188.495-148.855 224.593 1.442 6.432 2.231 12.995 2.231 19.689 0 49.489-40.166 89.655-89.655 89.655-49.485 0-89.654-40.167-89.654-89.655 0-6.432 0.787-12.864 2.101-19.033-87.161-34.918-148.724-120.109-148.724-219.605v-160.277c0-20.215-16.407-36.625-36.623-36.625-34.26 0-64.844-25.071-68.126-59.2-3.675-39.117 27.041-72.064 65.371-72.064h551.316c38.332 0 69.047 32.947 65.374 72.064-3.281 34.129-33.869 59.2-68.126 59.2-20.22 0-36.629 16.41-36.629 36.625zM548.617 740.261c-9.19 1.443-18.509 2.494-27.959 2.888-15.488 0.524-30.583-0.525-45.286-2.888-0.265 1.708-0.525 3.412-0.525 5.251 0 20.478 16.67 37.147 37.146 37.147 20.48 0 37.15-16.669 37.15-37.147 0-1.839-0.265-3.546-0.525-5.251zM603.354 142.217c0.525 5.513-3.674 10.368-9.19 10.368h-164.343c-5.513 0-9.712-4.86-9.056-10.368 5.12-45.815 43.975-81.519 91.228-81.519 47.258 0 86.11 35.703 91.362 81.519z" />
<glyph unicode="&#xe90f;" glyph-name="blackjack" d="M507.447 653.432v135.901h-336.781v-484.651h248.077l88.704 348.749zM395.245 530.603c0-35.883-17.429-65.54-67.46-65.54-20.030 0-43.615 7.898-59.396 30.182l23.498 25.617c10.319-13.069 22.545-20.087 34.511-20.087 18.383 0 27.834 8.158 27.834 33.162v82.734h-70.582v34.743h111.596v-120.811zM527.305 661.065l-2.513-9.826-88.188-346.556-4.506-17.545-24.28-95.458 326.117-85.013 119.398 469.295-326.029 85.103zM636.817 319.599c-3.119 4.301-5.722 8.951-7.889 13.862 3.989-26.231 13.875-46.059 31.996-58.782l-3.123-12.369-101.274 26.406 3.119 12.369c21.854 2.283 40.060 14.831 56.017 35.887-4.164-3.337-8.674-6.054-13.53-8.337-31.906-14.827-66.069 1.493-77.431 31.586-2.859 7.633-4.335 16.055-3.9 25.092 0.26 6.14 1.562 12.194 3.9 17.809 0.781 1.843 1.562 3.597 2.517 5.35 7.714 13.777 24.973 25.182 42.833 35.183 8.499 4.74 16.649 9.037 24.713 13.513 23.932 13.158 50.987 29.303 70.844 48.341 8.235-26.321 24.277-53.696 38.929-76.945 4.945-7.808 9.971-15.616 15.177-23.863 10.837-17.459 20.463-35.972 20.723-51.763 0-8.158-1.822-16.141-5.376-23.424-19.511-40.623-72.055-45.709-98.244-9.916z" />
<glyph unicode="&#xe910;" glyph-name="CalendarX" d="M840.533 755.2c-12.8 12.8-25.6 17.067-42.667 17.067h-85.333v29.867c0 8.533 0 17.067-8.533 21.333 0 0 0 0-4.267 4.267-4.267 0-8.533 0-12.8 0-8.533 0-17.067 0-21.333-8.533-4.267-4.267-8.533-12.8-8.533-21.333v-29.867h-290.133v29.867c0 8.533 0 17.067-8.533 21.333 0 0 0 0-4.267 0s-8.533 4.267-17.067 4.267-17.067 0-21.333-8.533c-4.267-4.267-8.533-12.8-8.533-21.333v-29.867h-85.333c-17.067 0-29.867-4.267-42.667-17.067s-17.067-25.6-17.067-42.667v-588.8c0-17.067 4.267-29.867 17.067-42.667s25.6-17.067 42.667-17.067h576c4.267 0 12.8 0 17.067 0 8.533 0 17.067 8.533 25.6 12.8 12.8 12.8 17.067 25.6 17.067 42.667v601.6c0 17.067-4.267 29.867-17.067 42.667zM669.867 213.333l-34.133-34.133-123.733 123.733-123.733-123.733-34.133 34.133 123.733 123.733-123.733 123.733 34.133 34.133 123.733-123.733 123.733 123.733 34.133-34.133-123.733-123.733 123.733-123.733zM802.133 597.333h-580.267v119.467h85.333v-29.867c0-8.533 0-17.067 8.533-21.333 4.267-4.267 12.8-8.533 21.333-8.533s17.067 0 21.333 8.533c4.267 4.267 8.533 12.8 8.533 21.333v29.867h290.133v-29.867c0-4.267 0-8.533 0-12.8 0 0 0-4.267 4.267-8.533s12.8-8.533 21.333-8.533 17.067 0 21.333 8.533c4.267 4.267 8.533 12.8 8.533 21.333v29.867h85.333v-119.467z" />
<glyph unicode="&#xe911;" glyph-name="caret-double-right" d="M523.2 64c-9.472-0.004-18.731 2.807-26.611 8.081-7.876 5.274-14.016 12.774-17.643 21.547s-4.574 18.428-2.722 27.742c1.847 9.314 6.413 17.869 13.111 24.58l244.881 245.466c7.411 7.433 13.291 16.252 17.306 25.958 4.011 9.707 6.076 20.113 6.076 30.618 0 10.509-2.065 20.911-6.076 30.622-4.015 9.707-9.894 18.526-17.306 25.954l-244.881 245.467c-4.446 4.459-7.974 9.751-10.381 15.577s-3.648 12.069-3.648 18.374c0 12.734 5.047 24.947 14.029 33.952s21.163 14.063 33.865 14.063c6.289 0 12.518-1.242 18.33-3.655s11.089-5.95 15.539-10.408l244.847-245.499c32.922-33.005 51.418-77.769 51.418-124.446 0-46.673-18.496-91.439-51.418-124.446l-244.847-245.5c-4.45-4.454-9.728-7.987-15.539-10.398s-12.041-3.652-18.33-3.648zM218.535 64c-9.47 0-18.726 2.82-26.599 8.094-7.872 5.278-14.007 12.774-17.629 21.547s-4.567 18.428-2.717 27.738c1.85 9.31 6.413 17.86 13.111 24.572l289.983 290.714c1.489 1.489 2.667 3.251 3.469 5.197 0.806 1.946 1.22 4.028 1.22 6.131s-0.414 4.19-1.22 6.131c-0.802 1.946-1.98 3.712-3.469 5.197l-289.983 290.715c-8.982 9-14.030 21.209-14.033 33.94s5.039 24.942 14.016 33.946c8.977 9.004 21.155 14.065 33.855 14.068s24.879-5.051 33.862-14.051l290.016-290.748c20.89-21.030 32.614-49.502 32.614-79.181s-11.725-58.15-32.614-79.181l-290.016-290.782c-4.448-4.454-9.728-7.987-15.539-10.398s-12.038-3.652-18.327-3.648z" />
<glyph unicode="&#xe912;" glyph-name="caret-down" d="M213.333 571.11l48.692 47.557 249.975-245.879 249.975 245.879 48.691-47.558-298.667-293.776-298.667 293.776z" />
<glyph unicode="&#xe913;" glyph-name="caret-left" d="M635.11 746.667l47.556-48.692-245.879-249.975 245.879-249.975-47.556-48.691-293.777 298.667 293.777 298.667z" />
<glyph unicode="&#xe914;" glyph-name="caret-right" d="M388.89 149.333l-47.557 48.691 245.879 249.975-245.879 249.975 47.557 48.692 293.776-298.667-293.776-298.667z" />
<glyph unicode="&#xe915;" glyph-name="caret-up" d="M810.667 324.89l-48.691-47.556-249.975 245.879-249.975-245.879-48.692 47.556 298.667 293.777 298.667-293.777z" />
<glyph unicode="&#xe916;" glyph-name="casino" d="M486.861 21.333c-99.096 5.747-189.132 45.257-258.777 107.196l89.104 89.105c46.569-39.424 105.251-64.977 169.673-70.289v-126.012zM192.529 164.083c-61.939 69.645-101.448 159.68-107.196 258.778h126.010c5.315-64.422 30.869-123.106 70.29-169.673l-89.104-89.105zM85.333 473.139c5.748 99.096 45.257 189.132 107.196 258.777l89.104-89.104c-39.421-46.569-64.976-105.251-70.29-169.673h-126.010zM228.084 767.471c69.645 61.939 159.681 101.448 258.777 107.196v-126.010c-64.422-5.315-123.104-30.869-169.673-70.29l-89.104 89.104zM537.139 874.667c99.098-5.748 189.133-45.257 258.778-107.196l-89.105-89.104c-46.566 39.421-105.25 64.976-169.673 70.29v126.010zM831.471 731.916c61.939-69.645 101.449-159.681 107.196-258.777h-126.007c-5.316 64.422-30.869 123.104-70.293 169.673l89.105 89.104zM938.667 422.861c-5.747-99.098-45.257-189.133-107.196-258.778l-89.105 89.105c39.424 46.566 64.977 105.25 70.293 169.673h126.007zM795.917 128.529c-69.645-61.939-159.68-101.449-258.778-107.196v126.012c64.422 5.312 123.106 30.865 169.673 70.289l89.105-89.105zM512 196.591c-138.849 0-251.408 112.559-251.408 251.409 0 138.849 112.559 251.408 251.408 251.408s251.409-112.559 251.409-251.408c0-138.85-112.559-251.409-251.409-251.409z" />
<glyph unicode="&#xe917;" glyph-name="check" d="M133.362 453.675l51.712 54.797c7.15 7.573 18.724 7.573 25.874 0l178.413-189.056c7.131-7.573 18.725-7.573 25.856 0l397.839 421.569c7.151 7.576 18.726 7.576 25.873 0l51.712-54.796c3.439-3.643 5.359-8.564 5.359-13.699 0-5.154-1.92-10.076-5.359-13.718l-475.424-503.781c-3.419-3.622-8.082-5.658-12.928-5.658s-9.509 2.035-12.928 5.658l-255.998 271.266c-7.15 7.578-7.15 19.84 0 27.418z" />
<glyph unicode="&#xe918;" glyph-name="check-bold" d="M412.091 129.173c-8.145-8.196-19.259-12.766-30.803-12.766s-22.658 4.57-30.803 12.766l-246.004 246.042c-25.53 25.532-25.53 66.927 0 92.412l30.803 30.81c25.538 25.532 66.888 25.532 92.418 0l153.586-153.591 415.013 415.018c25.536 25.53 66.927 25.53 92.416 0l30.805-30.811c25.527-25.53 25.527-66.92 0-92.41l-507.431-507.468z" />
<glyph unicode="&#xe919;" glyph-name="check-circle-fill" d="M512 874.667c-84.386 0-166.878-25.024-237.043-71.906s-124.852-113.519-157.145-191.482c-32.294-77.962-40.743-163.752-24.28-246.517s57.099-158.788 116.77-218.462c59.67-59.669 135.695-100.305 218.46-116.77 82.765-16.461 168.555-8.013 246.515 24.282 77.965 32.294 144.602 86.98 191.484 157.146s71.906 152.657 71.906 237.043c-0.119 113.123-45.111 221.577-125.099 301.567-79.991 79.989-188.446 124.98-301.568 125.1zM699.324 523.243l-229.743-229.747c-3.051-3.051-6.669-5.47-10.654-7.121s-8.256-2.505-12.57-2.505c-4.309 0-8.58 0.853-12.565 2.505s-7.605 4.070-10.653 7.121l-98.461 98.462c-6.159 6.161-9.618 14.511-9.618 23.223 0 8.708 3.46 17.062 9.618 23.219s14.511 9.617 23.22 9.617c8.71 0 17.062-3.46 23.22-9.617l75.239-75.281 206.524 206.563c3.051 3.049 6.669 5.469 10.654 7.119s8.256 2.5 12.57 2.5c4.309 0 8.58-0.849 12.565-2.5s7.603-4.069 10.654-7.119c3.051-3.049 5.466-6.669 7.117-10.653s2.5-8.254 2.5-12.567c0-4.312-0.849-8.582-2.5-12.567s-4.066-7.606-7.117-10.652z" />
<glyph unicode="&#xe91a;" glyph-name="check-dubble" d="M722.47 681.015c16.465-15.25 17.446-40.96 2.197-57.425l-365.968-395.106c-29.968-32.354-79.939-32.354-109.906 0l-152.637 164.787c-15.25 16.465-14.266 42.176 2.199 57.425 16.464 15.253 42.174 14.263 57.424-2.197l147.966-159.748 361.303 390.065c15.249 16.464 40.96 17.449 57.421 2.199zM925.666 681.015c16.461-15.25 17.446-40.96 2.197-57.425l-365.973-395.106c-15.249-16.465-40.96-17.451-57.425-2.202-16.465 15.253-17.446 40.96-2.197 57.425l365.973 395.109c15.249 16.464 40.96 17.449 57.425 2.199z" />
<glyph unicode="&#xe91b;" glyph-name="Clock" d="M764.48 587.711l13.504 13.48c6.084 6.077 6.084 15.929 0 22.006l-28.727 28.682c-6.084 6.077-15.953 6.077-22.042 0l-13.5-13.48c-46.549 37.298-103.637 61.973-165.897 68.859v74.023h-71.842v-73.832c-161.299-17.98-287.351-154.741-287.351-320.578 0-185.6 157.873-335.39 346.761-322.044 158.182 11.174 286.332 138.112 298.931 295.949 6.865 85.982-20.557 165.589-69.837 226.935zM623.936 350.912h-129.553c-10.163 0-18.406 8.226-18.406 18.377v178.432c0 10.149 8.243 18.377 18.406 18.377h35.029c10.163 0 18.406-8.227 18.406-18.377v-125.082h76.117c10.163 0 18.406-8.226 18.406-18.377v-34.974c0-10.15-8.243-18.377-18.406-18.377zM608 832h-192.013c-8.056 0-14.587-6.521-14.587-14.565v-53.596c0-8.044 6.531-14.565 14.587-14.565h192.013c8.055 0 14.588 6.521 14.588 14.565v53.596c0 8.044-6.532 14.565-14.588 14.565z" />
<glyph unicode="&#xe91c;" glyph-name="ClockCountdown" d="M309.581 388.267c0-110.933 88.558-204.8 202.419-204.8 41.417 0 80.427 12.177 113.391 34.688 16.922 11.554 19.294 35.866 4.86 50.47l-118.251 119.642v164.587c0 20.376-18.249 36.131-38.033 32.306-92.238-17.83-164.386-99.067-164.386-196.893zM149.333 388.267c0-200.533 160.248-366.933 362.667-366.933 198.199 0 362.667 162.133 362.667 366.933 0 98.133-37.952 183.467-96.994 247.467l23.492 23.765c12.646 12.796 12.646 33.541 0 46.337l-13.244 13.396c-12.646 12.796-33.152 12.796-45.798 0l-27.703-28.032c-46.387 34.133-101.21 55.467-160.247 59.733v42.667h9.783c17.886 0 32.384 14.669 32.384 32.765v15.537c0 18.096-14.498 32.765-32.384 32.765h-95.479c-17.886 0-32.384-14.669-32.384-32.765v-15.537c0-18.096 14.498-32.765 32.384-32.765h9.788v-42.667c-185.55-21.333-328.93-174.933-328.93-362.667zM229.457 388.267c0 157.867 126.511 285.867 282.543 285.867s282.543-128 282.543-285.867c0-157.867-126.511-285.867-282.543-285.867s-282.543 128-282.543 285.867z" />
<glyph unicode="&#xe91d;" glyph-name="coins" d="M400 608c150.221 0 272 50.144 272 112s-121.779 112-272 112c-150.222 0-272-50.144-272-112s121.778-112 272-112zM365.152 449.024c21.248 45.086 53.184 84.032 92.61 113.696-19.136-1.632-38.402-2.72-57.762-2.72-105.952 0-212.512 24.544-272 71.904v-71.904c0-56.994 103.424-103.906 237.152-110.976zM336 320c0 28.544 4.224 56.064 11.616 82.274-87.488 6.716-169.984 30.11-219.616 69.628v-71.902c0-52.992 89.44-97.25 209.472-108.894-0.896 9.502-1.472 19.132-1.472 28.894zM640 576c-141.15 0-256-114.85-256-256s114.85-256 256-256c141.15 0 256 114.85 256 256s-114.85 256-256 256zM627.84 344h24.32c37.406 0 67.84-30.434 67.84-67.84 0-33.634-24.256-61.312-56-66.944v-25.186c0-13.248-10.752-24-24-24s-24 10.752-24 24v23.97h-32c-13.248 0-24 10.752-24 24s10.752 24 24 24h68.16c10.944 0 19.84 8.896 19.84 19.84 0 11.264-8.896 20.16-19.84 20.16h-24.32c-37.406 0-67.84 30.434-67.84 67.84 0 33.634 24.256 61.312 56 66.944v25.216c0 13.248 10.752 24 24 24s24-10.752 24-24v-24h32c13.248 0 24-10.752 24-24s-10.752-24-24-24h-68.16c-10.944 0-19.84-8.896-19.84-19.84 0-11.264 8.896-20.16 19.84-20.16z" />
<glyph unicode="&#xe91e;" glyph-name="collapse" d="M128 217.6c0 72.405 0 108.612 22.494 131.106s58.698 22.494 131.106 22.494c72.408 0 108.612 0 131.106-22.494s22.494-58.701 22.494-131.106c0-72.405 0-108.612-22.494-131.106s-58.698-22.494-131.106-22.494c-72.408 0-108.612 0-131.106 22.494s-22.494 58.701-22.494 131.106zM184.236 775.764c56.236 56.236 146.745 56.236 327.764 56.236s271.531 0 327.761-56.236c56.239-56.236 56.239-146.745 56.239-327.764s0-271.531-56.239-327.761c-56.23-56.239-146.743-56.239-327.761-56.239-15.189 0-29.743 0-43.691 0.034 12.796 19.511 18.394 41.007 21.167 61.619 3.332 24.794 3.328 55.266 3.324 88.512v6.874c0.004 33.237 0.009 63.714-3.324 88.508-3.674 27.302-12.309 56.154-36.041 79.889-23.731 23.731-52.589 32.367-79.889 36.041-24.792 3.332-55.269 3.328-88.509 3.324h-6.873c-33.241 0.004-63.717 0.009-88.509-3.324-20.612-2.773-42.111-8.375-61.622-21.167-0.033 13.948-0.033 28.501-0.033 43.691 0 181.019 0 271.529 56.236 327.764zM656 419.2c15.906 0 28.8 12.894 28.8 28.8s-12.894 28.8-28.8 28.8h-74.47l142.835 142.835c11.247 11.247 11.247 29.483 0 40.73s-29.483 11.247-40.73 0l-142.835-142.835v74.47c0 15.906-12.894 28.8-28.8 28.8s-28.8-12.894-28.8-28.8v-144c0-15.906 12.894-28.8 28.8-28.8h144z" />
<glyph unicode="&#xe91f;" glyph-name="copy" d="M853.333 763.429v-466.285c0-9.007-1.839-17.924-5.414-26.24-3.571-8.32-8.811-15.881-15.415-22.246-6.601-6.37-14.443-11.422-23.070-14.865-8.627-3.447-17.873-5.222-27.213-5.222h-42.667v370.287c-0.073 32.713-13.585 64.066-37.572 87.197s-56.503 36.159-90.428 36.231h-270.221v41.143c0 18.186 7.492 35.628 20.828 48.487s31.423 20.084 50.283 20.084h369.776c18.863 0 36.949-7.224 50.283-20.084 13.338-12.86 20.83-30.301 20.83-48.487zM611.554 667.429h-369.776c-18.86 0-36.947-7.225-50.283-20.084s-20.828-30.301-20.828-48.488v-466.287c0-18.185 7.492-35.627 20.828-48.486s31.423-20.083 50.283-20.083h369.776c18.863 0 36.949 7.223 50.283 20.083 13.338 12.86 20.83 30.302 20.83 48.486v466.287c0 18.187-7.492 35.628-20.83 48.488-13.333 12.859-31.42 20.084-50.283 20.084z" />
<glyph unicode="&#xe920;" glyph-name="crypto" d="M566.579 564.221c-8.742 8.742-20.847 14.121-34.295 14.121h-72.845v-97.28h72.845c42.769 0 65.161 51.507 34.295 83.159zM459.439 433.993v-114.991h86.071c51.554 0 76.838 62.694 40.572 98.176-22.417 22.417-42.231 16.815-126.643 16.815zM938.667 447.889c0 235.803-190.976 426.778-426.556 426.778s-426.778-190.974-426.778-426.778c0-235.58 191.199-426.556 426.778-426.556s426.556 190.976 426.556 426.556zM673.946 296.589c-19.051-19.277-45.726-31.159-75.089-31.159h-57.382v-71.053h-48.862v71.053h-35.191v-71.053h-48.865v71.053h-89.659v48.64h54.468v267.635h-54.468v48.864h89.659v71.055h48.865v-71.055h35.191v71.055h48.862v-71.055h56.486c42.142 0 76.211-34.071 76.211-76.21 0-21.072-8.516-40.123-22.191-54.019-13.675-13.449-32.503-21.969-53.124-22.191 58.726 0 106.249-47.744 106.249-106.47 0-29.363-11.883-56.038-31.159-75.089z" />
<glyph unicode="&#xe921;" glyph-name="currency-circle-dollar" d="M512 874.667c-235.65 0-426.667-191.017-426.667-426.667 0-235.648 191.017-426.667 426.667-426.667 235.635 0 426.667 191.019 426.667 426.667 0 235.65-191.019 426.667-426.667 426.667zM486.268 514.466c2.53-5.7 6.967-10.901 13.265-15.633 6.302-4.732 14.985-9.549 26.018-14.451 26.965-11.733 49.297-23.215 66.999-34.415 17.681-11.217 30.865-24.051 39.548-38.498 8.67-14.451 13.001-32.452 13.001-54.003 0-30.298-9.634-54.733-28.898-73.297-19.268-18.569-45.099-29.517-77.517-32.853v-32.183c0-11.678-9.468-21.15-21.15-21.15s-21.15 9.472-21.15 21.15v31.667c-22.95 2.283-43.452 8.316-61.483 18.133-18.051 9.801-32.185 23.684-42.435 41.651-10.25 17.95-15.2 40.252-14.85 66.867l0.533 1.314h90.117c0-14.182 2.099-25.715 6.302-34.547 4.198-8.849 9.98-15.334 17.331-19.452s15.851-6.165 25.485-6.165c7.881 0 14.447 1.617 19.699 4.868 5.248 3.23 9.199 7.748 11.814 13.53 2.637 5.786 3.934 12.433 3.934 19.968 0 8.934-1.365 16.465-4.066 22.601-2.718 6.131-7.181 11.601-13.397 16.418s-14.767 9.583-25.617 14.315c-27.337 10.85-49.783 21.717-67.401 32.585-17.601 10.85-30.618 23.548-39.018 38.097-8.4 14.537-12.617 32.751-12.617 54.652 0 29.766 10.067 54.25 30.217 73.433 20.134 19.183 47.035 30.35 80.665 33.5v34.417c0 11.607 9.412 21.017 21.018 21.017 11.61 0 21.018-9.41 21.018-21.017v-35.733c31.535-4.733 56.533-17.7 75.017-38.883 18.483-21.2 27.452-48.267 26.935-81.185l0.781-2.099h-91.166c0 18.734-3.55 32.617-10.633 41.651-7.1 9.017-16.333 13.533-27.716 13.533s-20.403-3.683-26.018-11.033c-5.598-7.35-8.401-16.9-8.401-28.633 0-7.718 1.267-14.417 3.819-20.1l0.017-0.034z" />
<glyph unicode="&#xe922;" glyph-name="da-ga" d="M216.205 83.405c9.591-10.654 23.014-17.451 37.595-19.046 14.581-1.591 29.254 2.138 41.098 10.449l19.708 13.692v172.48l-97.527-102.635c-9.712-10.21-15.168-23.488-15.329-37.308s4.984-27.213 14.455-37.632zM718.797 757.923c-19.716 11.615-41.916 18.817-64.939 21.071-23.019 2.254-46.276-0.5-68.036-8.055-2.671-1.030-5.589-1.332-8.427-0.872-2.842 0.46-5.491 1.664-7.663 3.479-2.167 1.815-3.776 4.171-4.638 6.806s-0.947 5.447-0.247 8.126c3.093 12.47 8.892 24.174 17.024 34.346 5.513 6.877 12.053 12.934 19.413 17.974-7.514 1.709-15.206 2.578-22.929 2.591-16.41-0.675-32.482-4.687-47.155-11.77s-27.61-17.076-37.952-29.316c-2.048-2.366-4.8-4.072-7.889-4.886s-6.366-0.698-9.382 0.334c-3.017 1.032-5.632 2.929-7.488 5.434s-2.863 5.497-2.884 8.57c-0.158 20.97-0.38 41.94-0.67 62.91-16.546-4.5-31.94-12.243-45.212-22.737-13.476-11.216-24.506-24.878-32.456-40.199s-12.661-31.999-13.863-49.074c-0.185-2.675-1.114-5.253-2.691-7.466s-3.745-3.979-6.277-5.114c-2.532-1.135-5.335-1.598-8.116-1.341s-5.441 1.227-7.699 2.807c-11.939 8.207-21.71 18.979-28.532 31.455-3.057 5.819-5.425 11.948-7.059 18.274-9.929-14.693-15.277-31.8-15.414-49.309 0.253-14.28 3.747-28.336 10.239-41.19s15.825-24.196 27.351-33.239c13.029 23.849 31.753 44.406 54.644 59.991s49.302 25.757 77.073 29.686c27.772 3.929 56.115 1.503 82.726-7.080 26.607-8.582 50.722-23.078 70.374-42.304 20.262 10.425 42.876 15.928 65.869 16.027 28.237-0.121 55.825-8.125 79.398-23.037-11.341 19.046-27.285 35.202-46.494 47.108zM499.571 570.99c5.666-12.76 6.089-27.104 1.182-40.148-4.911-13.047-14.784-23.829-27.644-30.178-12.855-6.345-27.742-7.791-41.664-4.041-13.922 3.746-25.849 12.412-33.383 24.247-0.187-1.946-0.609-3.819-0.609-5.794-0.060-11.43 3.018-22.673 8.925-32.602 5.908-9.924 14.436-18.185 24.726-23.949 10.291-5.76 21.986-8.823 33.903-8.879 11.917-0.051 23.637 2.906 33.984 8.576s18.957 13.854 24.96 23.727c6.003 9.873 9.19 21.086 9.242 32.516s-3.038 22.672-8.951 32.594c-5.918 9.922-14.451 18.175-24.747 23.93h0.077zM753.31 171.887c0.956-0.674 88.064-60.591 185.357-51.379-174.033 153.097-264.768 387.183-304.073 516.583-9.877 32.67-31.71 60.827-61.491 79.298-29.777 18.471-65.506 26.016-100.621 21.249-35.119-4.767-67.26-21.525-90.527-47.197s-36.096-58.534-36.131-92.549v-515.938l59.078 82.923c1.485 2.112 3.515 3.827 5.893 4.966 2.378 1.143 5.023 1.677 7.678 1.549 2.652-0.111 5.231-0.866 7.494-2.197s4.135-3.196 5.436-5.414l53.41-90.948 27.174 97.6c0.806 2.906 2.5 5.508 4.873 7.475 2.368 1.967 5.299 3.204 8.414 3.554 3.115 0.346 6.263-0.213 9.041-1.604s5.052-3.554 6.532-6.204l53.534-95.863 5.295 79.552c0.171 2.607 1.050 5.124 2.551 7.3 1.498 2.18 3.567 3.947 5.999 5.124 2.428 1.173 5.137 1.719 7.859 1.583 2.718-0.137 5.35-0.956 7.637-2.368l157.090-97.122-50.176 80.209c-1.856 2.965-2.586 6.46-2.065 9.882 0.525 3.422 2.266 6.566 4.932 8.9 2.667 2.33 6.089 3.703 9.694 3.887 3.601 0.183 7.159-0.836 10.065-2.88l0.047 0.030zM465.387 420.006c-19.605-0.009-38.775 5.559-55.081 16s-29.018 25.284-36.527 42.658c-7.509 17.37-9.479 36.484-5.66 54.93s13.256 35.389 27.116 48.689c13.86 13.3 31.522 22.359 50.752 26.031 19.226 3.672 39.159 1.792 57.271-5.402 18.116-7.194 33.6-19.38 44.493-35.015s16.708-34.017 16.708-52.821c-0.026-25.199-10.47-49.361-29.043-67.183s-43.759-27.853-70.029-27.887zM314.559 378.082l-66.949 18.662 66.949-61.862v43.2zM446.583 524.975c14.43 0 26.125 11.22 26.125 25.060s-11.695 25.059-26.125 25.059c-14.43 0-26.127-11.22-26.127-25.059s11.697-25.060 26.127-25.060zM314.559 477.555l-143.892-28.19 143.892-40.098v68.288z" />
<glyph unicode="&#xe923;" glyph-name="default" d="M512 96c-194.404 0-352 157.598-352 352 0 194.404 157.596 352 352 352 194.402 0 352-157.596 352-352 0-194.402-157.598-352-352-352zM512 32c229.751 0 416 186.249 416 416s-186.249 416-416 416c-229.751 0-416-186.249-416-416s186.249-416 416-416z" />
<glyph unicode="&#xe924;" glyph-name="digital-wallet" d="M873.502 378.999h-135.002c-89.161 0-89.229-134.997 0-134.997h135.002c12.425 0 22.498 10.069 22.498 22.498v90.001c0 12.429-10.074 22.498-22.498 22.498zM738.5 288.998c-12.425 0-22.502 10.074-22.502 22.502 0 12.425 10.078 22.498 22.502 22.498s22.498-10.074 22.498-22.498c0-12.429-10.074-22.502-22.498-22.502zM172.233 684.267c-24.307-14.663-24.253-49.881-0.054-64.5 13.356-8.067 29.014-12.767 45.821-12.767v90c-16.782 0-32.424-4.686-45.767-12.733zM330.5 832c-37.351 0-67.5-30.149-67.5-67.5v-157.5h90v225h-22.5zM603.499 832h-160.499v-225h228.002v157.5c0 37.351-30.148 67.5-67.503 67.5zM715.998 694.75v-87.75h87.753c-8.998 44.099-43.652 78.75-87.753 87.75zM738.5 424h112.499v25.502c0 36.651-17.882 68.954-45.099 89.506 0.004 0.172 0.098 0.317 0.098 0.492v22.5h-587.999c-34.701 0-66.062 13.524-90 35.112v-420.613c0-62.029 50.47-112.499 112.5-112.499h498c62.029 0 112.499 50.47 112.499 112.499v22.502h-112.499c-148.621 0-148.702 224.998 0 224.998zM510.498 199.002h-22.498v-22.502c0-29.658-45.001-29.781-45.001 0v22.502h-67.5c-29.659 0-29.781 45.001 0 45.001h22.5v134.997h-22.5c-29.659 0-29.781 45.001 0 45.001h67.5v22.498c0 29.662 45.001 29.781 45.001 0v-22.498h22.498c57.754 0 89.498-68.642 49.946-112.499 39.552-43.861 7.808-112.499-49.946-112.499zM510.498 288.998h-67.499v-44.996h67.499c29.743 0 29.743 44.996 0 44.996zM510.498 378.999h-67.499v-45.001h67.499c29.743 0 29.743 45.001 0 45.001z" />
<glyph unicode="&#xe925;" glyph-name="esport" d="M896.691 621.931c-20.621 85.438-104.337 142.359-184.802 119.753-35.2-9.901-64.090-32.376-83.61-61.627-3.413-5.12-8.764-8.358-14.665-8.358h-203.222c-5.92 0-11.253 3.238-14.667 8.358-19.538 29.27-48.409 51.744-83.61 61.627-80.445 22.625-164.162-34.315-184.803-119.753-68.57-283.964-51.343-450.099 38.543-474.756 56.32-15.454 113.086 32.789 164.909 140.403-3.271 11.311-5.44 23.134-5.44 35.554 0 41.015 27.68 75.311 64.285 83.068 6.275 22.682 26.080 39.283 49.493 39.283h145.779c23.415 0 43.238-16.602 49.493-39.283 36.608-7.757 64.286-42.052 64.286-83.068 0-12.42-2.167-24.243-5.44-35.554 51.823-107.614 108.608-155.857 164.911-140.403 89.886 24.657 107.127 190.793 38.558 474.756zM325.325 558.422h-26.667v-28.233c0-15.586-11.947-28.237-26.667-28.237s-26.667 12.651-26.667 28.237v28.233h-26.667c-14.72 0-26.667 12.649-26.667 28.235s11.947 28.235 26.667 28.235h26.667v28.235c0 15.585 11.947 28.235 26.667 28.235s26.667-12.649 26.667-28.235v-28.235h26.667c14.72 0 26.667-12.649 26.667-28.235s-11.947-28.235-26.667-28.235zM458.662 520.777h-17.779c-9.813 0-17.779 8.431-17.779 18.822s7.965 18.823 17.779 18.823h17.779c9.813 0 17.775-8.433 17.775-18.823s-7.962-18.822-17.775-18.822zM583.108 520.777h-17.779c-9.813 0-17.779 8.431-17.779 18.822s7.966 18.823 17.779 18.823h17.779c9.813 0 17.775-8.433 17.775-18.823s-7.962-18.822-17.775-18.822zM751.996 671.36c14.72 0 26.667-12.649 26.667-28.235s-11.947-28.235-26.667-28.235c-14.72 0-26.667 12.649-26.667 28.235s11.947 28.235 26.667 28.235zM698.662 558.422c-14.72 0-26.667 12.649-26.667 28.235s11.947 28.235 26.667 28.235c14.72 0 26.667-12.649 26.667-28.235s-11.947-28.235-26.667-28.235zM751.996 501.952c-14.72 0-26.667 12.651-26.667 28.237 0 15.584 11.947 28.233 26.667 28.233s26.667-12.649 26.667-28.233c0-15.586-11.947-28.237-26.667-28.237zM805.333 558.422c-14.724 0-26.671 12.649-26.671 28.235s11.947 28.235 26.671 28.235c14.72 0 26.667-12.649 26.667-28.235s-11.947-28.235-26.667-28.235zM582.699 238.43h0.41c44.105 0 80 38.003 80 84.702 0 25.958-19.947 47.057-44.446 47.057h-17.779v20.706c0 9.357-7.164 16.943-16 16.943h-145.779c-8.836 0-16-7.586-16-16.943v-20.706h-17.778c-24.498 0-44.445-21.099-44.445-47.057 0-46.699 35.894-84.702 80.002-84.702h0.41c11.004-15.415 26.33-27.089 44.036-33.092v-23.377c0-10.394-7.966-18.825-17.779-18.825h-8.887c-24.482 0-44.323-20.932-44.447-46.814-0.017-5.252 3.911-9.655 8.889-9.655h177.779c4.979 0 8.909 4.386 8.892 9.655-0.128 25.882-19.968 46.814-44.446 46.814h-8.892c-9.813 0-17.775 8.431-17.775 18.825v23.377c17.724 6.003 33.050 17.694 44.036 33.092zM600.883 294.899v37.645h17.779c4.907 0 8.887-4.237 8.887-9.412 0-19.84-11.695-36.762-28.143-43.669 0.802 5.043 1.476 10.146 1.476 15.437zM396.437 323.132c0 5.175 3.983 9.412 8.889 9.412h17.778v-37.645c0-5.291 0.675-10.394 1.475-15.437-16.445 6.908-28.143 23.829-28.143 43.669z" />
<glyph unicode="&#xe926;" glyph-name="event" d="M234.936 475.686h37.645v-152.038c-21.894-7.428-39.015-25.335-45.43-47.753h136.033c-6.415 22.417-23.535 40.324-45.43 47.753v97.946c48.455-48.811 123.738-79.1 188.225-79.1 64.503 0 139.78 30.298 188.224 79.1v-97.946c-21.897-7.428-39.014-25.335-45.431-47.753h136.034c-6.413 22.417-23.535 40.324-45.431 47.753v152.038h37.645c12.471 0 22.588 10.172 22.588 22.703s-10.116 22.703-22.588 22.703h-9.89c43.853 44.603 12.535 121.085-50.338 121.085-62.882 0-94.191-76.483-50.338-121.085h-9.894c-12.467 0-22.588-10.172-22.588-22.703s10.121-22.703 22.588-22.703h24.047c-13.449-19.797-33.566-38.157-58.906-53.414-72.649-43.738-152.922-47.275-231.441 0-25.342 15.258-45.46 33.617-58.906 53.414h24.047c12.468 0 22.587 10.172 22.587 22.703s-10.119 22.703-22.587 22.703h-9.893c43.853 44.603 12.538 121.085-50.339 121.085-62.88 0-94.189-76.483-50.339-121.085h-9.893c-12.468 0-22.587-10.172-22.587-22.703s10.119-22.703 22.587-22.703zM890.18 101.884c-117.837 131.605-97.25 109.069-116.169 128.593-0.124 0.013-539.075 0.013-539.075 0.013-14.807-20.706 2.921 2.176-101.957-129.604-11.811-14.839-1.279-36.885 17.633-36.885h722.779c19.511 0 29.837 23.313 16.789 37.884zM434.697 672.508l-10.452-61.299c-3.174-18.52 16.204-32.681 32.767-23.944l54.767 28.954c60.297-31.869 57.847-31.558 65.276-31.558 13.935 0 24.657 12.617 22.268 26.548l-10.462 61.299 44.314 43.409c13.38 13.121 5.995 35.999-12.514 38.732l-61.239 8.945-27.392 55.759c-8.222 16.828-32.196 16.897-40.503 0l-27.375-55.759-61.242-8.945c-18.497-2.732-25.904-25.602-12.513-38.732l44.302-43.409z" />
<glyph unicode="&#xe927;" glyph-name="eye" d="M321.675 448.009c0 100.873 85.325 182.955 190.338 182.955 104.905 0 190.229-82.080 190.229-182.955 0-100.894-85.325-182.938-190.229-182.938-105.015 0-190.338 82.044-190.338 182.938zM90.256 465.463c-6.563-11.413-6.563-23.492 0-34.918 85.213-147.14 246.808-259.878 421.757-259.878 174.835 0 336.435 112.738 421.645 259.878 6.677 11.426 6.677 23.505 0 34.918-85.21 147.142-246.805 259.87-421.645 259.87-174.949 0-336.544-112.728-421.757-259.87zM512.013 571.005c-70.613 0-127.987-55.17-127.987-122.997 0-67.823 57.373-122.991 127.987-122.991 70.502 0 127.876 55.168 127.876 122.991 0 67.827-57.374 122.997-127.876 122.997z" />
<glyph unicode="&#xe928;" glyph-name="eye-slash" d="M505.506 573.215l122.15-113.179 0.585 5.926c0 59.465-52.16 107.791-116.339 107.791l-6.396-0.539zM511.902 645.613c107.029 0 193.894-80.483 193.894-179.65 0-23.177-5.039-45.269-13.764-65.57l113.429-105.097c58.556 45.274 104.704 103.838 133.205 170.667-67.281 157.732-232.674 269.474-426.761 269.474-54.293 0-106.255-8.982-154.535-25.15l83.764-77.428c21.905 7.904 45.756 12.754 70.767 12.754zM124.112 743.523l106.061-98.269c-63.985-46.349-114.592-107.97-144.84-179.291 67.088-157.73 232.674-269.47 426.569-269.47 60.109 0 117.5 10.778 170.048 30.357l129.523-120.183 49.442 45.632-687.36 637.035-49.443-45.811zM338.561 545.010l59.913-55.512c-1.745-7.727-2.909-15.45-2.909-23.535 0-59.465 52.157-107.789 116.336-107.789 8.725 0 17.062 1.079 25.207 2.697l59.913-55.514c-25.788-11.857-54.481-19.042-85.12-19.042-107.029 0-193.895 80.482-193.895 179.648 0 28.386 7.757 54.976 20.554 79.047z" />
<glyph unicode="&#xe929;" glyph-name="facebook" d="M800 832h-576c-52.944 0-96-43.056-96-96v-576c0-52.945 43.056-96 96-96h288v264h-96v120h96v96c0 79.536 64.465 144 144 144h96v-120h-48c-26.496 0-48 2.496-48-24v-96h120l-48-120h-72v-264h144c52.945 0 96 43.055 96 96v576c0 52.944-43.055 96-96 96z" />
<glyph unicode="&#xe92a;" glyph-name="filter" d="M425.616 424.009v-337.498c0-18.095 19.376-28.587 33.58-18.718l129.604 89.997c6.012 4.177 9.617 11.209 9.617 18.722v247.497h-172.801zM836.015 832h-647.998c-11.939 0-21.6-10.063-21.6-22.5v-67.498h691.2v67.498c0 12.436-9.66 22.5-21.602 22.5zM179.073 697.002l215.999-227.997h233.89l216 227.997h-665.889z" />
<glyph unicode="&#xe92b;" glyph-name="fire" d="M772.429 550.79c-2.56 2.883-5.658 2.317-7.283 1.728-1.361-0.497-4.48-2.083-4.049-6.060 0.521-4.775 0.811-9.644 0.866-14.473 0.23-20.028-8.695-39.65-24.495-53.837-15.697-14.093-36.343-21.687-58.325-21.466-30.029 0.346-54.938 14.438-72.030 40.759-14.131 21.764-7.919 49.838-1.344 79.559 3.849 17.397 7.829 35.387 7.829 52.508 0 133.315-99.588 210.228-158.955 244.209-1.229 0.702-2.394 0.948-3.43 0.948-1.685 0-3.017-0.653-3.674-1.053-1.276-0.777-3.315-2.546-2.658-5.68 22.69-108.436-44.989-173.654-116.644-242.701-73.858-71.171-157.571-151.837-157.571-297.327 0-169.045 152.822-306.573 340.668-306.573 154.667 0 291.029 97.041 331.61 235.981 27.674 94.741-1.323 215.42-70.515 293.475zM519.834 86.771c-47.040-1.929-91.772 13.252-125.939 42.65-33.801 29.090-53.188 69.679-53.188 111.369 0 78.238 33.24 135.667 122.644 211.917 1.463 1.246 2.961 1.643 4.267 1.643 1.182 0 2.21-0.324 2.914-0.631 1.489-0.644 3.934-2.24 3.601-5.696-3.196-33.472-3.14-61.257 0.166-82.586 8.444-54.473 52.757-91.076 110.272-91.076 28.198 0 55.057 9.553 75.631 26.893 2.385 2.014 5.052 1.758 6.076 1.562 1.353-0.265 3.166-1.011 4.117-3.072 8.529-18.534 12.89-38.208 12.958-58.475 0.269-81.54-73.084-150.848-163.52-154.496z" />
<glyph unicode="&#xe92c;" glyph-name="game-bai" d="M325.687 696.829l-52.8-468.149 145.847-17.476-178.479-55.808-138.923 471.269 224.354 70.164zM345.942 721.793l1.298 11.768 26.226-3.21 50.462-5.973 160.822-19.257-206.784-400.66 164.458-90.044-39.125 4.634-211.197 25.323 53.838 477.42zM401.338 311.863l224.442 434.803 296.887-162.528-224.439-434.805-296.89 162.53zM640.405 332.1l12.813-7.044 4.932 9.54 1.037 1.963c0 0-0.431 0.623-0.691 0.892-6.835 8.201-11.511 17.562-14.281 28.083-2.859 11.055-3.55 23.266-2.423 36.817 0.866-5.346 2.338-10.607 4.412-15.599 0.090-0.269 0.26-0.448 0.35-0.713 3.635-8.649 8.828-15.693 15.057-21.222 23.113-20.86 59.985-19.699 82.231 8.115 5.193 6.242 8.828 13.82 10.645 21.841 3.465 15.693-1.557 36.198-8.137 56.081-3.115 9.451-6.234 18.364-9.173 27.281-8.832 26.569-18.091 57.414-19.994 85.408-10.65-6.33-22.682-11.679-35.059-16.404-5.969-2.318-12.028-4.369-18.176-6.33-9.088-2.942-18.091-5.617-26.743-7.933-8.832-2.411-17.745-4.817-27.093-7.403-19.648-5.615-39.036-12.749-49.685-24.427-5.453-6.063-9.434-13.372-11.597-21.308-12.638-43.955 22.677-84.25 65.783-75.605 5.193 1.071 10.214 2.675 14.972 4.907-20.425-16.853-40.939-24.964-62.665-21.935l-5.888-11.499 79.373-43.418v-0.090z" />
<glyph unicode="&#xe92d;" glyph-name="game-center" d="M464.546 767.326c-7.33 18.998-20.228 35.338-37.009 46.878-16.775 11.54-36.648 17.743-57.011 17.795h-141.474c-26.791-0.032-52.475-10.689-71.42-29.633s-29.601-44.628-29.633-71.419v-141.474c0.032-26.791 10.689-52.475 29.633-71.419s44.629-29.602 71.42-29.632h141.474c26.791 0.030 52.475 10.688 71.419 29.632s29.602 44.628 29.632 71.419v141.474c-0.132 9.474-1.621 18.88-4.425 27.931-0.559 2.903-1.434 5.735-2.607 8.448zM370.526 569.263h-101.053v121.263c0 5.36 2.129 10.501 5.92 14.291s8.931 5.919 14.291 5.919h101.053v-121.263c0-5.36-2.129-10.501-5.92-14.291s-8.931-5.92-14.291-5.92zM891.575 758.878c-0.563 2.889-1.438 5.708-2.607 8.407-7.326 19.005-20.224 35.354-37.001 46.902s-36.655 17.757-57.020 17.812h-141.474c-26.79-0.032-52.476-10.689-71.42-29.633s-29.602-44.628-29.632-71.419v-141.474c0.030-26.791 10.688-52.475 29.632-71.419s44.629-29.602 71.42-29.632h141.474c26.79 0.030 52.476 10.688 71.42 29.632s29.598 44.628 29.632 71.419v141.474c-0.132 9.474-1.621 18.88-4.425 27.931zM794.948 569.263h-101.052v121.263c0 5.36 2.129 10.501 5.918 14.291s8.93 5.919 14.289 5.919h101.056v-121.263c0-5.36-2.129-10.501-5.922-14.291-3.789-3.79-8.93-5.92-14.289-5.92zM464.546 342.903c-7.33 18.999-20.228 35.341-37.009 46.882-16.775 11.537-36.648 17.741-57.011 17.792h-141.474c-26.791-0.030-52.475-10.688-71.42-29.632s-29.601-44.629-29.633-71.42v-141.474c0.032-26.79 10.689-52.476 29.633-71.42s44.629-29.598 71.42-29.632h141.474c26.791 0.034 52.475 10.688 71.419 29.632s29.602 44.629 29.632 71.42v141.474c-0.132 9.476-1.621 18.88-4.425 27.93-0.559 2.906-1.434 5.739-2.607 8.448zM370.526 144.841h-101.053v121.263c0 5.363 2.129 10.505 5.92 14.293s8.931 5.918 14.291 5.918h101.053v-121.263c0-5.359-2.129-10.5-5.92-14.289-3.791-3.793-8.931-5.922-14.291-5.922zM888.969 342.903c-7.334 18.999-20.233 35.341-37.009 46.882-16.777 11.537-36.651 17.741-57.011 17.792h-141.474c-26.79-0.030-52.476-10.688-71.42-29.632s-29.602-44.629-29.632-71.42v-141.474c0.030-26.79 10.688-52.476 29.632-71.42s44.629-29.598 71.42-29.632h141.474c26.79 0.034 52.476 10.688 71.42 29.632s29.598 44.629 29.632 71.42v141.474c-0.132 9.476-1.621 18.88-4.425 27.93-0.559 2.906-1.434 5.739-2.607 8.448zM794.948 144.841h-101.052v121.263c0 5.363 2.129 10.505 5.918 14.293s8.93 5.918 14.289 5.918h101.056v-121.263c0-5.359-2.129-10.5-5.922-14.289-3.789-3.793-8.93-5.922-14.289-5.922z" />
<glyph unicode="&#xe92e;" glyph-name="game-nhanh" d="M864.529 517.726l-256.529 46.646v107.625c0 35.376-28.655 64.003-64.004 64.003h-7.996v48h103.996v48h-255.993v-48h103.997v-48h-7.996c-35.349 0-64.005-28.656-64.005-64.003v-107.625l-256.502-46.646c-17.309-3.157-31.497-20.13-31.497-37.73v-63.991c0-35.196 28.809-64.004 64.003-64.004h230.87c4.57-44.16 11.32-87.684 20.382-130.377l-94.628-47.309c-15.754-7.872-28.627-28.723-28.627-46.31v-64.004h384v64.004c0 17.587-12.873 38.438-28.617 46.31l-94.63 47.309c9.054 42.692 15.812 86.217 20.403 130.377h230.839c35.196 0 64.004 28.809 64.004 64.004v63.991c0 17.6-14.161 34.573-31.471 37.73zM543.996 448c0-17.596-14.4-31.996-31.996-31.996s-31.996 14.4-31.996 31.996v96c0 17.597 14.4 31.997 31.996 31.997s31.996-14.4 31.996-31.997v-96z" />
<glyph unicode="&#xe92f;" glyph-name="giftcode" d="M314.048 659.192c-5.952 3.84-11.136 7.68-15.936 11.712-25.152 21.312-35.712 45.504-35.712 65.088 0 25.344 7.296 44.16 19.968 56.832s31.488 19.968 56.832 19.968c101.376 0 149.952-60.288 172.8-109.056 22.848 48.768 71.424 109.056 172.8 109.056 25.344 0 44.16-7.296 56.832-19.968s19.968-31.488 19.968-56.832c0-19.584-10.56-43.968-35.712-65.088-10.752-9.216-24.384-17.856-41.088-25.344v-63.36c0-10.56 8.64-19.2 19.2-19.2s19.2 8.64 19.2 19.2v76.8h96.96c41.856 0 75.84-33.984 75.84-75.84v-154.56c0-10.56-8.64-19.2-19.2-19.2h-19.2c-10.176 0-19.968-4.032-27.072-11.328-7.296-7.104-11.328-16.896-11.328-27.072s4.032-19.968 11.328-27.072c7.104-7.296 16.896-11.328 27.072-11.328h19.008c19.392 0 19.392-19.2 19.392-19.2v-154.56c0-41.856-33.984-75.84-75.84-75.84h-96.96v76.8c0 10.56-8.64 19.2-19.2 19.2s-19.2-8.64-19.2-19.2v-76.8h-480.96c-41.856 0-75.84 33.984-75.84 75.84v154.56c0 0 0 19.2 19.392 19.2h19.008c10.176 0 19.968 4.032 27.072 11.328 7.296 7.296 11.328 17.088 11.328 27.264s-4.032 19.968-11.328 27.072c-7.104 7.296-16.896 11.328-27.072 11.328h-19.2c-10.56 0-19.2 8.64-19.2 19.2v154.56c0 41.856 33.984 75.84 75.84 75.84h110.208zM684.8 275.191v-57.6c0-10.56 8.64-19.2 19.2-19.2s19.2 8.64 19.2 19.2v57.6c0 10.56-8.64 19.2-19.2 19.2s-19.2-8.64-19.2-19.2zM512 351.991c-31.872 0-57.6-25.728-57.6-57.6s25.728-57.6 57.6-57.6c31.872 0 57.6 25.728 57.6 57.6s-25.728 57.6-57.6 57.6zM517.568 461.623l-172.8-172.8c-7.488-7.488-7.488-19.584 0-27.264 7.488-7.488 19.584-7.488 27.264 0l172.8 172.8c7.488 7.488 7.488 19.584 0 27.264-7.488 7.488-19.584 7.488-27.264 0zM512 313.591c10.56 0 19.2-8.64 19.2-19.2s-8.64-19.2-19.2-19.2c-10.56 0-19.2 8.64-19.2 19.2s8.64 19.2 19.2 19.2zM684.8 409.591v-76.8c0-10.56 8.64-19.2 19.2-19.2s19.2 8.64 19.2 19.2v76.8c0 10.56-8.64 19.2-19.2 19.2s-19.2-8.64-19.2-19.2zM377.6 486.391c-31.872 0-57.6-25.728-57.6-57.6s25.728-57.6 57.6-57.6c31.872 0 57.6 25.728 57.6 57.6s-25.728 57.6-57.6 57.6zM377.6 447.991c10.56 0 19.2-8.64 19.2-19.2s-8.64-19.2-19.2-19.2c-10.56 0-19.2 8.64-19.2 19.2s8.64 19.2 19.2 19.2zM684.8 524.791v-57.6c0-10.56 8.64-19.2 19.2-19.2s19.2 8.64 19.2 19.2v57.6c0 10.56-8.64 19.2-19.2 19.2s-19.2-8.64-19.2-19.2zM536 659.192h14.4c74.304 0 123.456 18.048 150.72 41.088 14.208 11.904 22.080 24.576 22.080 35.712 0 13.056-2.304 23.040-8.832 29.568s-16.512 8.832-29.568 8.832c-102.336 0-137.664-76.608-148.8-115.2h-47.808c-11.328 38.592-46.464 115.2-148.8 115.2-13.056 0-23.040-2.304-29.568-8.832s-8.832-16.512-8.832-29.568c0-11.136 7.872-23.808 22.080-35.712 27.264-23.040 76.416-41.088 150.72-41.088h14.4c-27.264-36.096-56.064-63.36-108.48-57.792-10.56 1.152-19.968-6.528-21.12-17.088s6.528-19.968 17.088-21.12c60.864-6.528 102.912 19.392 136.512 58.56 33.6-39.168 75.648-65.088 136.512-58.56 10.56 1.152 18.24 10.56 17.088 21.12s-10.56 18.24-21.12 17.088c-52.416-5.568-81.024 21.504-108.48 57.792h-0.192z" />
<glyph unicode="&#xe930;" glyph-name="hand-deposit" d="M774.95 286.694h-0.213c-5.252 0-10.291-2.129-14.007-5.918s-5.807-8.93-5.807-14.289c0-5.359 2.091-10.5 5.807-14.289s8.755-5.918 14.007-5.918h0.213c5.257 0 10.295 2.129 14.012 5.918s5.803 8.93 5.803 14.289c0 5.359-2.086 10.5-5.803 14.289s-8.755 5.918-14.012 5.918zM808.043 468.988h-555.782c-27.027-0.026-53.33 8.913-74.943 25.463l-10.565 8.068v-398.383c0.016-10.645 4.171-20.847 11.553-28.369 7.382-7.526 17.389-11.759 27.825-11.767h601.91v102.246h-26.475c-26.074 0-51.076 10.56-69.513 29.363-18.436 18.799-28.791 44.301-28.791 70.891s10.355 52.087 28.791 70.891c18.436 18.803 43.439 29.363 69.513 29.363h26.475v102.234zM857.617 326.327v-119.654h-76.041c-15.556 0-30.481 6.302-41.481 17.523-10.999 11.217-17.182 26.436-17.182 42.304s6.182 31.083 17.182 42.304c10.999 11.221 25.924 17.523 41.481 17.523h76.041zM252.261 683.779h66.921l0.866-5.7c6.062-39.706 25.842-75.894 55.77-102.031s68.030-40.503 107.433-40.503c39.403 0 77.508 14.365 107.435 40.503s49.707 62.325 55.77 102.031l0.866 5.7h68.399v-174.373h-463.459c-11.256-0.047-22.411 2.172-32.824 6.532s-19.879 10.773-27.855 18.876c-7.976 8.101-14.305 17.728-18.623 28.33s-6.542 21.969-6.542 33.449c0 11.48 2.223 22.847 6.542 33.449s10.647 20.23 18.623 28.33c7.976 8.101 17.443 14.515 27.855 18.875s21.568 6.58 32.824 6.533zM419.754 728.33l49.302 51.677c1.847 1.936 4.053 3.476 6.494 4.527s5.065 1.592 7.71 1.592c2.65 0 5.274-0.541 7.714-1.592 2.436-1.051 4.646-2.59 6.494-4.527l49.314-51.677c3.584-3.859 5.538-9.003 5.431-14.318s-2.266-10.374-6.003-14.080c-3.738-3.706-8.755-5.761-13.969-5.72-5.21 0.041-10.197 2.175-13.879 5.939l-15.283 16.003v-74.076c0-5.361-2.091-10.502-5.807-14.293s-8.759-5.92-14.016-5.92c-5.257 0-10.295 2.13-14.012 5.92-3.721 3.791-5.807 8.932-5.807 14.293v74.076l-15.279-16.003c-1.809-1.926-3.972-3.467-6.37-4.535-2.394-1.068-4.975-1.643-7.586-1.69-2.615-0.047-5.214 0.434-7.645 1.416s-4.648 2.444-6.522 4.304c-1.874 1.859-3.369 4.079-4.398 6.53s-1.573 5.086-1.599 7.753c-0.026 2.666 0.466 5.312 1.447 7.784s2.431 4.721 4.268 6.618zM483.255 575.989c24.823 0.003 49.088 7.511 69.73 21.578 20.638 14.066 36.723 34.058 46.221 57.448s11.985 49.126 7.138 73.956c-4.843 24.829-16.794 47.636-34.347 65.538s-39.919 30.092-64.265 35.032c-24.346 4.94-49.579 2.406-72.516-7.281-22.932-9.687-42.535-26.092-56.327-47.14s-21.155-45.795-21.158-71.112c0.033-33.942 13.269-66.484 36.802-90.485s55.441-37.499 88.721-37.533z" />
<glyph unicode="&#xe931;" glyph-name="handshake" d="M608.354 564.19l-32.171-34.057c-27.567-29.18-64.951-45.572-103.932-45.572-39.262 0-76.179 16.188-103.941 45.577l-8.311 8.8c-9.556 10.119-9.556 26.524 0.003 36.641l110.653 117.135c-33.975 22.439-77.487 23.209-112.784 0.080-20.456-13.408-46.699-10.002-63.814 8.281l-35.661 38.094c-9.328 9.966-24.534 10.002-33.906 0.081l-116.152-122.954c-9.343-9.89-9.341-25.923 0.002-35.813l393.645-416.668c17.476-15.45 39.625-18.765 59.392-8.841 15.718 7.889 32.311 26.244 31.799 54.123-0.077 4.083 0.674 8.183 2.359 11.857 4.595 10.027 14.276 15.505 24.107 14.66 15.168-1.314 30.532 4.843 42.167 16.887 11.354 11.755 17.361 27.575 16.469 43.405-0.794 14.174 9.83 26.406 23.206 27.418 19.337 1.463 35.106 11.187 46.878 28.919 8.713 13.12 14.498 29.956 16.218 46.566l-156.228 165.38zM915.661 613.524l-116.314 123.129c-9.34 9.888-24.486 9.888-33.826 0l-41.865-44.314c-18.099-19.161-46.123-21.542-66.637-5.66-40.486 31.343-97.707 26.676-133.094-10.855l-111.431-117.958c17.052-13.936 37.852-21.484 59.753-21.484 26.189 0 50.807 10.795 69.325 30.398l49.476 52.375c4.783 5.059 11.046 7.589 17.31 7.589s12.527-2.53 17.306-7.589l164.075-173.689 125.926 132.247c9.335 9.89 9.335 25.923-0.004 35.811z" />
<glyph unicode="&#xe932;" glyph-name="hand-withdraw" d="M774.95 286.694h-0.213c-5.252 0-10.291-2.129-14.007-5.918s-5.807-8.93-5.807-14.289c0-5.359 2.091-10.5 5.807-14.289s8.755-5.918 14.007-5.918h0.213c5.257 0 10.295 2.129 14.012 5.918s5.803 8.93 5.803 14.289c0 5.359-2.086 10.5-5.803 14.289s-8.755 5.918-14.012 5.918zM419.754 679.658l49.302-51.676c1.847-1.937 4.053-3.476 6.494-4.527s5.065-1.593 7.71-1.593c2.65 0 5.274 0.542 7.714 1.593 2.436 1.051 4.646 2.59 6.494 4.527l49.314 51.676c3.584 3.859 5.538 9.004 5.431 14.319s-2.266 10.374-6.003 14.080c-3.738 3.706-8.755 5.761-13.969 5.72-5.21-0.041-10.197-2.175-13.879-5.939l-15.283-16.003v74.076c0 5.361-2.091 10.502-5.807 14.293s-8.759 5.92-14.016 5.92c-5.257 0-10.295-2.129-14.012-5.92-3.721-3.791-5.807-8.932-5.807-14.293v-74.076l-15.279 16.003c-1.809 1.926-3.972 3.467-6.37 4.535-2.394 1.068-4.975 1.643-7.586 1.69-2.615 0.047-5.214-0.434-7.645-1.416s-4.648-2.444-6.522-4.304c-1.874-1.859-3.369-4.079-4.398-6.53s-1.573-5.086-1.599-7.753c-0.026-2.666 0.466-5.312 1.447-7.784s2.431-4.721 4.268-6.618zM808.043 468.988h-555.782c-27.027-0.026-53.33 8.913-74.943 25.463l-10.565 8.068v-398.383c0.016-10.645 4.171-20.847 11.553-28.369 7.382-7.526 17.389-11.759 27.825-11.767h601.91v102.246h-26.475c-26.074 0-51.076 10.56-69.513 29.363-18.436 18.799-28.791 44.301-28.791 70.891s10.355 52.092 28.791 70.891c18.436 18.803 43.439 29.363 69.513 29.363h26.475v102.234zM857.617 326.327v-119.654h-76.041c-15.556 0-30.481 6.302-41.481 17.523-10.999 11.217-17.182 26.436-17.182 42.304s6.182 31.083 17.182 42.304c10.999 11.221 25.924 17.523 41.481 17.523h76.041zM252.261 683.779h66.921l0.866-5.7c6.062-39.706 25.842-75.894 55.77-102.031s68.030-40.503 107.433-40.503c39.403 0 77.508 14.365 107.435 40.503s49.707 62.325 55.77 102.031l0.866 5.7h68.399v-174.373h-463.459c-11.256-0.047-22.411 2.172-32.824 6.532s-19.879 10.773-27.855 18.876c-7.976 8.101-14.305 17.728-18.623 28.33s-6.542 21.969-6.542 33.449c0 11.48 2.223 22.847 6.542 33.449s10.647 20.229 18.623 28.33c7.976 8.101 17.443 14.515 27.855 18.875s21.568 6.58 32.824 6.533zM483.255 832c24.823-0.003 49.088-7.511 69.73-21.578 20.638-14.066 36.723-34.058 46.221-57.448s11.981-49.126 7.138-73.955c-4.843-24.83-16.794-47.637-34.347-65.538s-39.919-30.092-64.265-35.032c-24.346-4.94-49.579-2.406-72.516 7.281-22.932 9.687-42.535 26.092-56.328 47.14s-21.155 45.795-21.158 71.112c0.033 33.942 13.268 66.484 36.802 90.485s55.441 37.499 88.721 37.533z" />
<glyph unicode="&#xe933;" glyph-name="hd-nap" d="M210.286 64h301.77c-45.342 34.065-79.791 81.847-97.181 137.143h-149.732c-15.141 0-27.429 12.288-27.429 27.426 0 15.142 12.288 27.43 27.429 27.43h138.485c-0.877 9.024-1.343 18.185-1.343 27.43 0 18.786 1.892 37.137 5.484 54.857h-142.627c-15.141 0-27.429 12.288-27.429 27.426 0 15.142 12.288 27.43 27.429 27.43h159.991c13.466 30.775 32.419 58.615 55.625 82.287h-215.616c-15.141 0-27.429 12.288-27.429 27.426 0 15.142 12.288 27.43 27.429 27.43h274.287c4.305 0 8.367-0.99 11.985-2.773 37.551 19.311 80.094 30.201 125.154 30.201 39.006 0 76.117-8.146 109.717-22.848v214.848c0 45.449-36.838 82.286-82.287 82.286h-329.143v-164.571c0-21.833-8.668-42.761-24.111-58.176-15.415-15.442-36.341-24.11-58.175-24.11h-164.571v-438.856c0-21.833 8.669-42.761 24.111-58.176 15.415-15.445 36.341-24.111 58.175-24.111zM152.111 675.465c-9.958-9.957-17.089-22.19-20.903-35.465h161.364c7.269 0 14.263 2.88 19.393 8.037 5.156 5.129 8.036 12.123 8.036 19.392v161.362c-13.276-3.812-25.51-10.944-35.464-20.9l-132.425-132.425zM896 283.43c0 121.097-98.33 219.426-219.43 219.426-121.097 0-219.426-98.33-219.426-219.426 0-121.101 98.33-219.43 219.426-219.43 121.101 0 219.43 98.33 219.43 219.43zM659.43 300.57v120h34.283v-120h120v-34.283h-120v-120h-34.283v120h-120v34.283h120z" />
<glyph unicode="&#xe934;" glyph-name="hd-rut" d="M210.286 64h301.77c-45.342 34.065-79.791 81.847-97.181 137.143h-149.732c-15.141 0-27.429 12.288-27.429 27.426 0 15.142 12.288 27.43 27.429 27.43h138.485c-0.877 9.024-1.343 18.185-1.343 27.43 0 18.786 1.892 37.137 5.484 54.857h-142.627c-15.141 0-27.429 12.288-27.429 27.426 0 15.142 12.288 27.43 27.429 27.43h159.991c13.466 30.775 32.419 58.615 55.625 82.287h-215.616c-15.141 0-27.429 12.288-27.429 27.426 0 15.142 12.288 27.43 27.429 27.43h274.287c4.305 0 8.367-0.99 11.985-2.773 37.551 19.311 80.094 30.201 125.154 30.201 39.006 0 76.117-8.146 109.717-22.848v214.848c0 45.449-36.838 82.286-82.287 82.286h-329.143v-164.571c0-21.833-8.668-42.761-24.111-58.176-15.415-15.443-36.341-24.11-58.175-24.11h-164.571v-438.856c0-21.833 8.669-42.761 24.111-58.176 15.415-15.445 36.341-24.111 58.175-24.111zM152.111 675.465c-9.958-9.957-17.089-22.19-20.903-35.465h161.364c7.269 0 14.263 2.88 19.393 8.037 5.156 5.129 8.036 12.123 8.036 19.392v161.362c-13.276-3.812-25.51-10.944-35.464-20.9l-132.425-132.425zM676.57 502.857c121.101 0 219.43-98.33 219.43-219.426 0-121.101-98.33-219.43-219.43-219.43-121.097 0-219.426 98.33-219.426 219.43 0 121.097 98.33 219.426 219.426 219.426zM813.713 269.713v41.143h-274.283v-41.143h274.283z" />
<glyph unicode="&#xe935;" glyph-name="history" d="M832.93 704.002c-1.314 0-2.633-0.645-3.947-0.961-1.647 0.317-2.965 0.961-4.279 0.961h-32.917v96c0 17.596-14.81 31.998-32.913 31.998h-493.714c-48.715 0-89.196-34.559-97.098-79.998-0.988-2.561-1.645-5.121-1.645-8.004v-591.998c0-48.644 40.482-88 90.516-88h575.997c13.495 0 24.687 10.88 24.687 24v592.002c0 13.119-11.191 24-24.687 24zM512.017 176c-117.836 0-213.945 93.44-213.945 208s96.109 208 213.945 208c117.837 0 213.943-93.44 213.943-208s-96.107-208-213.943-208zM725.961 704.002h-460.801c-18.105 0-32.913 14.396-32.913 31.998s14.808 31.998 32.913 31.998h460.801v-63.996zM561.387 304c-8.422 0-16.849 3.136-23.266 9.374l-49.374 48c-6.191 5.982-9.643 14.118-9.643 22.626v96c0 17.694 14.741 32 32.913 32s32.913-14.306 32.913-32v-82.752l39.727-38.626c12.873-12.51 12.873-32.73 0-45.248-6.417-6.238-14.844-9.374-23.27-9.374z" />
<glyph unicode="&#xe936;" glyph-name="home" d="M886.357 471.458l-347.059 334.496c-7.287 7.025-16.986 10.895-27.294 10.895-10.313 0-20.011-3.867-27.298-10.895l-347.061-334.496c-11.625-11.2-10.266-20.83-8.425-25.404 1.845-4.57 7.348-12.527 23.489-12.527h39.079v-297.293c0-30.942 26.668-57.079 56.867-57.079h175.91v201.506h170.239v-201.506h180.54c30.298 0 55.71 26.675 55.71 57.079v297.293h40.235c16.145 0 21.645 7.957 23.492 12.527 1.839 4.574 3.204 14.199-8.422 25.404z" />
<glyph unicode="&#xe937;" glyph-name="hourglass" d="M763.337 137.643v76.634c0 90.257-74.052 144.235-145.22 196.902-9.83 7.258-22.345 21.043-22.345 42.082s11.273 41.557 22.345 50.33c69.244 54.876 145.22 106.648 145.22 196.903v57.862h55.855v73.644h-614.4v-73.644h55.854v-57.864c0-90.257 75.973-142.028 145.223-196.902 11.071-8.777 22.343-29.291 22.343-50.33 0-21.043-12.512-34.825-22.343-42.086-71.169-52.663-145.223-106.645-145.223-196.898v-76.634h-55.854v-73.643h614.4v73.643h-55.855zM370.937 632.11c-20.589 21.946-32.093 43.071-32.093 68.384v57.862h346.298v-57.864c0-25.311-11.507-46.438-32.094-68.384l-282.111 0.002zM685.141 158.17l-131.516 48.341c-22.899 8.414-60.356 8.414-83.255 0l-131.527-48.346v56.107c0 51.068 43.098 85.551 113.428 137.587l1.865 1.378c26.701 19.716 44.015 47.172 49.894 77.431 5.261-1.105 10.667-1.105 15.927 0 5.854-30.251 23.189-57.707 49.852-77.402l1.899-1.408c70.332-52.032 113.429-86.507 113.429-137.587l0.004-56.102z" />
<glyph unicode="&#xe938;" glyph-name="img-icon" d="M128 832h768v-768h-768v768z" />
<glyph unicode="&#xe939;" glyph-name="info" d="M827.49 731.008c-54.886 62.592-172.715 100.992-315.49 100.992-142.777 0-260.606-38.4-315.49-100.992-91.346-105.984-91.346-460.8 0-566.016 54.884-62.592 172.713-100.992 315.49-100.992 142.775 0 260.604 38.4 315.49 100.992 91.345 105.984 91.345 460.032 0 566.016zM512 649.6c9.489 0 18.765-2.815 26.654-8.090s14.037-12.771 17.668-21.542c3.635-8.771 4.582-18.422 2.731-27.733s-6.417-17.864-13.129-24.577c-6.711-6.713-15.258-11.284-24.563-13.136-9.31-1.852-18.953-0.902-27.721 2.732s-16.26 9.785-21.53 17.679c-5.274 7.894-8.085 17.174-8.085 26.668 0 12.73 5.052 24.94 14.050 33.941s21.201 14.059 33.924 14.059zM550.383 236.8h-76.762c-10.18 0-19.942 4.045-27.14 11.247s-11.243 16.969-11.243 27.153c0 10.185 4.045 19.951 11.243 27.153s16.96 11.247 27.14 11.247v115.2c-10.18 0-19.942 4.045-27.14 11.247s-11.243 16.969-11.243 27.153c0 10.185 4.045 19.951 11.243 27.153s16.96 11.247 27.14 11.247h38.379c10.18 0 19.942-4.045 27.14-11.247s11.243-16.969 11.243-27.153v-153.6c10.176 0 19.938-4.045 27.136-11.247s11.243-16.969 11.243-27.153c0-10.185-4.045-19.951-11.243-27.153s-16.96-11.247-27.136-11.247z" />
<glyph unicode="&#xe93a;" glyph-name="info-1" d="M736.636 832h-325.772c-27.203 0-52.797-10.56-72-29.76l-123.515-123.521c-19.203-19.199-29.766-44.478-29.766-71.68v-441.279c0-56 45.766-101.76 101.765-101.76h449.287c56 0 101.747 45.76 101.747 101.76v564.799c0 56-45.747 101.441-101.747 101.441zM485.756 706.060c13.329 13.838 36.425 10.778 45.090 0 12.945-12.909 11.814-33.946 0-45.125-12.855-12.858-32.375-12.748-45.090 0-11.814 11.174-12.949 32.212 0 45.125zM476.318 569.446c0 17.672 14.31 32 32 32 17.685 0 32-14.328 32-32v-87.406c0-17.673-14.315-32-32-32-17.69 0-32 14.327-32 32v87.406zM643.063 192.102h-269.497c-17.687 0-32 14.327-32 32s14.312 32 32 32h269.497c17.69 0 32-14.327 32-32s-14.31-32-32-32zM643.063 320.038h-269.497c-17.687 0-32 14.327-32 32s14.312 32 32 32h269.497c17.69 0 32-14.327 32-32s-14.31-32-32-32z" />
<glyph unicode="&#xe93b;" glyph-name="introduce" d="M853.333 730.624c0-13.204-11.226-23.938-25.033-23.938h-632.601c-13.809 0-25.033 10.733-25.033 23.938v34.771c0 13.204 11.225 23.938 25.033 23.938h632.601c13.807 0 25.033-10.733 25.033-23.938v-34.771zM219.75 690.463v-316.033c0-32.375 27.54-58.709 61.396-58.709h222.406v-137.69c-16.785-3.691-29.367-18.044-29.367-35.17 0-19.968 16.969-36.194 37.85-36.194s37.85 16.226 37.85 36.194c0 17.152-12.582 31.479-29.367 35.17v137.69h222.404c33.86 0 61.397 26.334 61.397 58.709v316.033h-584.568zM515.115 434.637h-125.951c-9.215 0-16.707 7.138-16.707 15.949s7.492 15.974 16.707 15.974h125.951c9.216 0 16.678-7.164 16.678-15.974s-7.462-15.949-16.678-15.949zM634.854 539.697h-245.691c-9.215 0-16.707 7.139-16.707 15.95s7.492 15.951 16.707 15.951h245.691c9.212 0 16.704-7.139 16.704-15.951s-7.492-15.95-16.704-15.95z" />
<glyph unicode="&#xe93c;" glyph-name="jackpot" d="M872.981 198.131h-27.085v70.285c17.344 14.729 28.412 36.975 28.412 61.824v279.084c0 24.851-11.068 47.077-28.412 61.825v76.705c0 46.397-36.813 84.146-82.057 84.146h-503.682c-45.243 0-82.053-37.748-82.053-84.146v-76.705c-17.347-14.729-28.413-36.975-28.413-61.825v-279.084c0-24.849 11.067-47.074 28.413-61.824v-70.285h-27.087c-12.706 0-23.018-10.577-23.018-23.603v-30.272c0-44.245 35.116-80.256 78.26-80.256h611.481c43.145 0 78.259 36.011 78.259 80.256v30.272c0 13.026-10.313 23.603-23.019 23.603zM634.057 513.318c-12.723 0-23.014 10.577-23.014 23.605 0 13.030 10.291 23.604 23.014 23.604h80.674c7.603 0 14.733-3.852 19.021-10.31 4.292-6.458 5.193-14.673 2.394-21.944l-54.579-142.118c-3.571-9.289-12.245-14.955-21.414-14.955-2.816 0-5.67 0.529-8.435 1.643-11.819 4.779-17.638 18.487-12.979 30.609l42.185 109.867h-46.865zM471.646 513.318c-12.706 0-23.019 10.577-23.019 23.605 0 13.030 10.313 23.604 23.019 23.604h80.691c7.603 0 14.729-3.852 19.021-10.31s5.175-14.673 2.394-21.944l-54.579-142.118c-3.571-9.289-12.245-14.955-21.414-14.955-2.82 0-5.675 0.529-8.435 1.643-11.84 4.779-17.643 18.487-12.983 30.609l42.189 109.867h-46.882zM309.251 513.318c-12.706 0-23.017 10.577-23.017 23.605 0 13.030 10.312 23.604 23.017 23.604h80.673c7.623 0 14.749-3.852 19.040-10.31 4.272-6.458 5.175-14.673 2.376-21.944l-54.561-142.118c-3.572-9.289-12.245-14.955-21.434-14.955-2.799 0-5.653 0.529-8.416 1.643-11.84 4.779-17.641 18.487-12.982 30.609l42.187 109.867h-46.883zM224.122 747.854c0 20.375 16.168 36.937 36.018 36.937h154.071v-9.46c0-24.152 19.15-43.791 42.702-43.791h110.153c23.552 0 42.705 19.639 42.705 43.791v9.46h154.069c19.87 0 36.019-16.58 36.019-36.937v-58.369c-1.271 0.057-2.539 0.094-3.81 0.094h-568.097c-1.271 0-2.56-0.038-3.812-0.094l-0.018 58.369zM224.122 250.078c1.271-0.055 2.541-0.094 3.812-0.094h568.094c1.271 0 2.56 0.038 3.814 0.094v-51.947h-575.72v51.947z" />
<glyph unicode="&#xe93e;" glyph-name="khac" d="M152.708 362.394h87.742c3.603 25.259 13.217 48.346 27.627 67.9l-60.236 61.231c-29.277-35.682-50.775-80.273-55.133-129.131zM385.691 233.988c58.136 0 105.262 47.91 105.262 107.008s-47.125 107.004-105.262 107.004c-58.135 0-105.263-47.906-105.263-107.004s47.128-107.008 105.263-107.008zM616.205 319.595h-85.274c-3.601-25.254-13.218-48.346-27.627-67.9l60.237-61.231c29.278 35.682 48.303 80.273 52.663 129.131zM207.841 190.464l60.236 61.231c-14.41 19.554-24.024 42.645-27.627 67.9h-87.742c4.358-48.858 25.856-93.449 55.133-129.131zM297.847 460.557c19.235 14.647 41.948 24.418 66.792 28.083v86.682c-48.061-4.43-91.926-23.774-127.028-53.535l60.236-61.231zM563.541 491.524l-60.237-61.231c14.409-19.554 24.026-42.641 27.627-67.9h85.274c-4.361 48.858-23.386 93.449-52.663 129.131zM473.536 221.436c-19.234-14.652-41.95-24.422-66.793-28.087v-86.682c48.062 4.429 91.927 23.774 127.029 53.534l-60.237 61.235zM364.638 193.348c-24.844 3.665-47.557 13.436-66.792 28.087l-60.236-61.235c35.102-29.76 78.969-49.105 127.028-53.534v86.682zM406.743 488.64c24.843-3.665 47.558-13.436 66.793-28.083l60.237 61.231c-35.102 29.761-78.972 49.105-127.029 53.535v-86.682zM534.938 573.894c45.679-30.332 81.822-74.161 103.138-125.856 0.081 0 0.162-0.038 0.247-0.038 58.039 0 105.263 48.004 105.263 107.005s-47.223 107.005-105.263 107.005c-51.678 0-94.554-38.125-103.386-88.117zM659.375 702.65c24.845-3.663 47.556-13.436 66.79-28.084l60.237 61.233c-35.102 29.762-78.967 49.104-127.027 53.534v-86.683zM870.353 533.604h-86.788c-3.605-25.257-13.218-48.343-27.627-67.898l59.686-60.676c29.218 35.584 50.325 79.842 54.729 128.574zM785.839 374.784l-59.674 60.659c-21.269-16.196-46.852-26.355-74.769-28.902 5.035-21.056 7.979-42.935 7.979-65.545 0-6.878-0.529-13.619-1.015-20.373 48.422 4.25 92.139 24.252 127.479 54.161zM415.291 617.511c28.814-3.166 56.172-11.131 81.618-22.694 4.958 18.125 12.983 34.808 23.799 49.488l-59.657 60.642c-20.74-25.367-36.887-54.768-45.761-87.436zM816.171 705.536l-60.233-61.233c14.409-19.554 24.021-42.642 27.627-67.897h87.74c-4.356 48.856-25.856 93.447-55.134 129.13zM550.477 674.566c19.238 14.648 41.95 24.422 66.795 28.084v85.962c-47.979-4.473-91.605-23.488-126.609-53.242l59.814-60.805z" />
<glyph unicode="&#xe93f;" glyph-name="livesport" d="M520.951 708.32l104.627-75.763 72.9 22.115 33.020 109.959c-31.526 39.622-72.303 70.234-118.652 88.868l-91.994-66.446v-78.732h0.098zM385.492 632.557l104.628 75.763v78.732l-91.998 66.548c-46.247-18.736-87.123-49.348-118.651-88.868l33.019-110.061 73.001-22.115zM576.051 865.683c-46.246 11.979-94.682 11.979-141.030 0l70.515-50.987 70.515 50.987zM797.739 594.471c-3.285 48.939-18.202 96.342-43.563 137.909l-25.361-84.568 68.924-53.341zM797.739 554.746l-90.010 69.62-72.802-22.013-39.881-121.834 45.35-66.142h113.98c25.557 42.389 40.478 90.611 43.26 140.47l0.102-0.102zM566.899 493.623l37.696 115.284-99.059 71.668-99.059-71.668 37.696-115.284h122.726zM415.627 334.929h179.816l19.891 60.919-45.252 66.035h-129.092l-45.254-66.035 19.891-60.919zM685.154 334.929c17.502 13.926 33.417 29.999 47.339 47.612h-88.913l-15.514-47.612h57.088zM278.577 382.541c14.023-17.715 29.837-33.685 47.341-47.612h57.088l-15.515 47.612h-88.913zM256.995 732.381c-25.461-41.568-40.379-88.971-43.661-137.909l68.923 53.341-25.361 84.568h0.099zM370.673 414.276l45.352 66.142-39.882 121.834-72.802 22.012-90.008-69.518c2.884-49.757 17.703-98.081 43.264-140.47h114.076zM219.4 302.784v-281.451h591.267v281.451h-591.267zM387.879 83.891h-97.069v157.871h33.417v-128.695h63.652v-29.175zM439.697 83.891h-33.916v157.871h33.916v-157.871zM554.667 83.891h-45.751l-50.423 157.871h36.501l36.002-128.9h2.287l35.806 128.9h36.203l-50.624-157.871zM739.358 83.891h-115.469v157.871h115.268v-28.258h-81.553v-37.060h70.413v-25.596h-70.413v-38.703h81.754v-28.254z" />
<glyph unicode="&#xe940;" glyph-name="lock-key" d="M257.115 518.17c30.994 7.206 68.241 14.494 110.091 20.062v71.289c0 83.055 64.957 150.625 144.794 150.625 79.842 0 144.798-67.57 144.798-150.625v-71.289c41.847-5.568 79.095-12.855 110.089-20.062v91.351c0 146.202-114.342 265.146-254.886 265.146s-254.885-118.945-254.885-265.148v-91.349zM512 342.451c-16.55 0-30.016-14.007-30.016-31.223 0-17.22 13.466-31.228 30.016-31.228s30.016 14.007 30.016 31.228c0 17.216-13.466 31.223-30.016 31.223zM512 498.027c-151.054 0-276.887-35.618-320-49.434v-377.818c43.178-13.803 169.284-49.442 320-49.442 151.057 0 276.89 35.618 320 49.429v377.818c-43.179 13.803-169.28 49.446-320 49.446zM536.034 233.954v-82.044h-48.064v82.044c-31.33 10.573-54.050 41.207-54.050 77.274 0 44.787 35.029 81.22 78.080 81.22 43.055 0 78.080-36.433 78.080-81.22 0-36.066-22.72-66.701-54.046-77.274z" />
<glyph unicode="&#xe941;" glyph-name="lo-de" d="M532.079 668.566h40.158v-40.256h-40.158v40.256zM532.079 588.055h40.158v-40.256h-40.158v40.256zM451.763 668.566h40.158v-40.256h-40.158v40.256zM532.079 507.546h40.158v-40.256h-40.158v40.256zM612.39 507.546h40.158v-40.256h-40.158v40.256zM612.39 668.566h40.158v-40.256h-40.158v40.256zM612.39 588.055h40.158v-40.256h-40.158v40.256zM371.451 668.566h40.157v-40.256h-40.157v40.256zM371.451 507.546h40.157v-40.256h-40.157v40.256zM833.254 628.311h20.079v161.023h-682.667v-161.023h20.079c79.821-3.046 79.759-117.748 0-120.765h-20.079v-161.024h395.802c60.924 53.773 151.659 53.594 212.279 0h74.586v161.024h-20.079c-79.821 3.042-79.761 117.75 0 120.765zM692.706 427.034h-361.412v281.789h361.412v-281.789zM451.763 507.546h40.158v-40.256h-40.158v40.256zM371.451 588.055h40.157v-40.256h-40.157v40.256zM451.763 588.055h40.158v-40.256h-40.158v40.256zM791.424 245.884c-8.465 50.573-48.269 90.475-98.718 98.961v-58.705h-40.158v58.697c-50.155-8.435-90.202-48.047-98.718-98.953h58.56v-40.256h-58.56c8.465-50.573 48.269-90.475 98.718-98.961v58.705h40.158v-58.701c50.159 8.435 90.202 48.051 98.718 98.957h-58.56v40.256h58.56z" />
<glyph unicode="&#xe942;" glyph-name="logout" d="M433.634 157.867c-1.088 2.846-1.463 5.261-1.097 7.219 0.367 1.941-0.9 3.55-3.806 4.791s-4.358 2.223-4.358 2.927c0 0.708-2.083 1.246-6.26 1.596-4.175 0.358-6.258 0.542-6.258 0.542h-169.792c-23.945 0-44.446 8.346-61.5 25.071-17.050 16.708-25.575 36.796-25.575 60.258v375.472c0 23.467 8.523 43.55 25.575 60.262 17.054 16.713 37.555 25.073 61.5 25.073h174.147c4.718 0 8.427 1.147 11.154 3.463 2.718 2.311 4.527 5.78 5.44 10.401 0.905 4.622 1.455 8.795 1.634 12.529 0.179 3.73 0.094 8.445-0.273 14.134-0.358 5.686-0.542 9.241-0.542 10.67 0 4.622-1.724 8.614-5.167 11.998-3.45 3.37-7.529 5.061-12.244 5.061h-174.15c-43.171 0-80.089-15.023-110.749-45.067-30.653-30.044-45.982-66.218-45.982-108.529v-375.466c0-42.308 15.329-78.49 45.982-108.523 30.661-30.059 67.579-45.082 110.749-45.082h174.155c4.718 0 8.429 1.161 11.155 3.465 2.718 2.313 4.527 5.777 5.44 10.406 0.905 4.617 1.451 8.811 1.634 12.527 0.179 3.738 0.094 8.439-0.273 14.131-0.363 5.692-0.542 9.246-0.542 10.671zM928.324 472l-296.051 290.144c-6.886 6.747-15.053 10.132-24.486 10.132s-17.6-3.385-24.495-10.132c-6.895-6.757-10.342-14.765-10.342-24.004v-153.602h-243.806c-9.439 0-17.6-3.385-24.494-10.132-6.895-6.757-10.339-14.76-10.339-24.005v-204.806c0-9.242 3.444-17.246 10.339-23.996 6.902-6.746 15.060-10.142 24.494-10.142h243.811v-153.596c0-9.242 3.443-17.25 10.338-24 6.895-6.758 15.061-10.142 24.495-10.142s17.6 3.383 24.491 10.142l296.047 290.129c6.895 6.763 10.342 14.754 10.342 24 0 9.242-3.447 17.254-10.342 24.009z" />
<glyph unicode="&#xe943;" glyph-name="menu" d="M891.264 789.333h-758.526c-26.12 0-47.404-17.879-47.404-39.82v-56.893c0-21.941 21.285-39.82 47.404-39.82h758.526c26.116 0 47.403 17.879 47.403 39.82v56.893c0 21.941-21.286 39.82-47.403 39.82zM763.264 516.267h-502.526c-26.12 0-47.404-17.877-47.404-39.821v-56.892c0-21.943 21.285-39.821 47.404-39.821h502.526c26.116 0 47.403 17.877 47.403 39.821v56.892c0 21.943-21.286 39.821-47.403 39.821zM891.264 243.2h-758.526c-26.12 0-47.404-17.877-47.404-39.821v-56.892c0-21.943 21.285-39.821 47.404-39.821h758.526c26.116 0 47.403 17.877 47.403 39.821v56.892c0 21.943-21.286 39.821-47.403 39.821z" />
<glyph unicode="&#xe944;" glyph-name="mess" d="M512 832c-212.064 0-384-159.168-384-355.537 0-111.885 55.824-211.678 143.088-276.864v-135.599l130.752 71.761c34.896-9.651 71.858-14.882 110.16-14.882 212.066 0 384 159.168 384 355.537s-171.934 355.584-384 355.584zM550.161 353.199l-97.779 104.303-190.798-104.303 209.904 222.817 100.177-104.306 188.399 104.306-209.903-222.817z" />
<glyph unicode="&#xe945;" glyph-name="minus-fill" d="M796.446 789.333h-568.89c-15.088 0-29.558-5.994-40.227-16.662s-16.662-25.139-16.662-40.227v-568.89c0-15.087 5.994-29.555 16.662-40.226 10.669-10.667 25.139-16.661 40.227-16.661h568.89c15.087 0 29.555 5.995 40.226 16.661 10.667 10.671 16.661 25.139 16.661 40.226v568.89c0 15.088-5.995 29.558-16.661 40.227-10.671 10.668-25.139 16.662-40.226 16.662zM711.113 419.554h-398.224c-7.544 0-14.779 2.999-20.113 8.333s-8.331 12.57-8.331 20.113c0 7.543 2.996 14.78 8.331 20.113s12.569 8.333 20.113 8.333h398.224c7.543 0 14.775-2.999 20.113-8.333 5.333-5.333 8.329-12.57 8.329-20.113s-2.995-14.78-8.329-20.113c-5.338-5.333-12.57-8.333-20.113-8.333z" />
<glyph unicode="&#xe946;" glyph-name="momo" d="M732.224 483.507c90.56 0 163.776 72.943 163.776 163.165s-73.216 163.166-163.776 163.166c-90.556 0-163.772-72.945-163.772-163.166s73.216-163.165 163.772-163.165zM732.224 716.162c38.537 0 69.751-31.098 69.751-69.489s-31.215-69.49-69.751-69.49c-38.532 0-69.747 31.098-69.747 69.49s31.215 69.489 69.747 69.489zM732.224 412.864c-90.556 0-163.772-72.943-163.772-163.166s73.216-163.166 163.772-163.166c90.56 0 163.776 72.943 163.776 163.166s-73.216 163.166-163.776 163.166zM732.224 180.207c-38.532 0-69.747 31.1-69.747 69.491s31.215 69.491 69.747 69.491c38.537 0 69.751-31.1 69.751-69.491s-31.215-69.491-69.751-69.491zM398.514 412.864c-27.745 0-53.178-9.216-73.601-24.572-20.424 15.356-46.242 24.572-73.602 24.572-67.821 0-122.926-54.899-122.926-122.47v-204.245h94.025v205.397c0 15.356 12.331 27.644 27.745 27.644s27.745-12.288 27.745-27.644v-205.013h94.025v205.013c0 15.356 12.331 27.644 27.745 27.644s27.747-12.288 27.747-27.644v-205.013h93.636v204.245c0 67.187-54.72 122.086-122.54 122.086zM398.514 809.839c-27.745 0-53.178-9.214-73.601-24.571-20.424 15.357-46.242 24.571-73.602 24.571-68.207 0-123.311-54.9-123.311-122.471v-203.86h94.025v205.012c0 15.357 12.331 27.642 27.745 27.642s27.745-12.285 27.745-27.642v-205.012h94.025v205.012c0 15.357 12.331 27.642 27.745 27.642s27.744-12.285 27.744-27.642v-205.012h94.025v203.86c0 67.57-54.72 122.471-122.54 122.471z" />
<glyph unicode="&#xe947;" glyph-name="mute" d="M888.973 529.818c-12.16 12.159-31.859 12.159-44.015 0l-37.807-37.803-37.803 37.803c-12.16 12.159-31.855 12.159-44.015 0-12.156-12.16-12.16-31.868 0-44.019l37.803-37.798-37.803-37.803c-12.16-12.16-12.16-31.859 0-44.015 6.080-6.080 14.046-9.122 22.007-9.122 7.966 0 15.927 3.042 22.007 9.122l37.803 37.798 37.807-37.798c6.080-6.080 14.042-9.122 22.007-9.122 7.962 0 15.927 3.042 22.007 9.122 12.156 12.16 12.156 31.855 0 44.015l-37.803 37.803 37.803 37.798c12.156 12.151 12.156 31.859 0 44.019zM173.176 266.125h175.737l239.119-196.975c3.311-2.726 7.322-4.459 11.571-4.983 4.245-0.521 8.55 0.179 12.416 2.022 3.87 1.843 7.138 4.753 9.425 8.393s3.503 7.859 3.499 12.169v722.5c0.004 4.307-1.212 8.526-3.499 12.166s-5.555 6.551-9.425 8.395c-3.866 1.844-8.171 2.544-12.416 2.019-4.25-0.525-8.26-2.253-11.571-4.984l-239.164-196.972h-175.692c-11.982 0-23.472-4.791-31.945-13.317s-13.232-20.093-13.232-32.152v-272.816c0-12.058 4.76-23.625 13.232-32.149s19.963-13.316 31.945-13.316z" />
<glyph unicode="&#xe948;" glyph-name="news" d="M381.635 468.002h110.363v120.665h-95.020c-8.849-37.144-14.091-78.036-15.343-120.665zM532.002 468.002h110.362c-1.25 42.628-6.49 83.52-15.343 120.665h-95.019v-120.665zM682.381 468.002h170.364c-2.428 42.202-12.501 82.962-29.568 120.665h-155.157c8.286-37.661 13.18-78.455 14.362-120.665zM355.98 588.667h-155.157c-17.063-37.703-27.139-78.463-29.565-120.665h170.363c1.18 42.21 6.074 83.003 14.36 120.665zM491.998 745.369c-24.841-9.753-49.007-37.221-68.427-78.642-5.58-11.901-10.637-24.637-15.167-38.060h83.594v116.702zM387.355 683.708c31.938 68.113 76.201 105.625 124.645 105.625-91.175 0-176.888-35.505-241.36-99.973-18.587-18.588-34.75-38.951-48.367-60.693h144.149c5.983 19.613 12.973 38.066 20.932 55.041zM636.646 683.708c7.957-16.974 14.946-35.428 20.928-55.041h144.149c-13.615 21.743-29.777 42.105-48.367 60.693-64.469 64.468-150.182 99.973-241.357 99.973 48.444 0 92.706-37.512 124.646-105.625zM532.002 745.369v-116.702h83.593c-4.527 13.423-9.587 26.159-15.164 38.060-19.422 41.42-43.584 68.888-68.429 78.642zM170.667 427.998v-301.329c0-11.046 8.954-20.002 20-20.002h642.665c11.046 0 20.002 8.956 20.002 20.002v301.329h-682.667zM353.831 192.815c-7.683-2.398-15.767 0.559-20.599 7.539l-50.61 73.289v-66.313c0-9.203-7.461-16.666-16.667-16.666-9.204 0-16.666 7.462-16.666 16.666v119.778c0 7.292 4.742 13.739 11.706 15.91 6.963 2.172 14.528-0.439 18.675-6.443l53.241-77.094-0.655 67.691c-0.089 9.203 7.301 16.734 16.505 16.823h0.164c9.131 0 16.575-7.356 16.663-16.503l1.121-115.955v-0.162c0.001-8.828-5.055-16.115-12.879-18.56zM453.555 283.998c9.203 0 16.666-7.462 16.666-16.666 0-9.207-7.462-16.67-16.666-16.67h-30.17v-26.667h33.895c9.207 0 16.67-7.462 16.67-16.666s-7.462-16.666-16.67-16.666h-50.561c-9.205 0-16.667 7.462-16.667 16.666v120c0 9.203 7.462 16.666 16.667 16.666h50.561c9.207 0 16.67-7.462 16.67-16.666s-7.462-16.666-16.67-16.666h-33.895v-26.667h30.17zM656.017 323.857l-23.475-117.943c-0.141-0.717-0.333-1.421-0.567-2.112-2.654-7.804-9.971-13.082-18.214-13.137h-0.128c-8.188 0-15.514 5.167-18.257 12.89-0.081 0.226-0.154 0.448-0.222 0.674l-20.489 66.505-20.582-66.492c-0.043-0.149-0.094-0.294-0.141-0.439-2.654-7.799-9.971-13.077-18.21-13.137h-0.137c-8.183 0-15.509 5.163-18.253 12.885-0.273 0.768-0.486 1.553-0.649 2.351l-23.377 118.199c-1.788 9.028 4.083 17.796 13.116 19.584 9.028 1.783 17.796-4.087 19.584-13.116l12.582-63.62 19.814 64.013c1.267 5.645 5.427 10.475 11.349 12.301 8.798 2.709 18.125-2.223 20.838-11.021l20.109-65.28 12.617 63.403c1.796 9.028 10.573 14.886 19.601 13.094 9.024-1.796 14.886-10.573 13.090-19.601zM776.324 230.409c-4.113-23.031-26.039-39.744-52.139-39.744-21.026 0-40.768 8.478-54.165 23.262-6.182 6.822-5.666 17.361 1.156 23.543 6.822 6.178 17.361 5.658 23.543-1.161 6.985-7.71 18.001-12.314 29.466-12.314 10.722 0 18.249 6.242 19.324 12.271 1.408 7.898-10.871 13.082-14.673 14.481-18.662 6.882-35.234 14.263-35.93 14.571-0.806 0.358-1.579 0.781-2.313 1.259-13.201 8.61-20.006 23.701-17.749 39.39 2.389 16.678 14.558 30.255 31.753 35.435 31.731 9.562 58.142-10.193 61.999-13.278 3.908-3.051 6.426-7.791 6.426-13.129 0-9.207-7.462-16.67-16.666-16.67-4.092 0-7.834 1.481-10.735 3.925l0.090-0.102c-0.149 0.119-15.317 12.215-31.501 7.339-6.784-2.044-8.115-6.455-8.375-8.256-0.171-1.203-0.26-4.049 2.176-6.14 4.437-1.941 17.911-7.74 32.363-13.069 31.245-11.524 39.057-34.219 35.951-51.614z" />
<glyph unicode="&#xe949;" glyph-name="no-hu" d="M435.247 743.042c13.35 17.265 32.367 29.94 54.238 35.22 0.623 29.367-23.070 53.769-52.484 53.73-35.097 0.631-61.382-35.93-49.875-68.94 18-2.205 34.5-9.33 48.122-20.010zM589.248 743.432c13.517 10.455 29.837 17.445 47.629 19.62 11.494 33.015-14.775 69.568-49.877 68.94-29.346 0.033-53.043-24.228-52.514-53.535 22.050-5.13 41.263-17.76 54.763-35.025zM828.497 459.994c-17.515 0-49.246 0-71.275 0-8.337 14.507-18.688 29.141-28.625 42.692h-433.197c-9.948-13.568-20.282-28.177-28.625-42.697-15.036-0.004-71.275 0.004-71.275 0.004-37.215 0-67.5-30.285-67.5-67.499-0.183-37.483 31.179-67.75 67.5-67.499h24.96c-29.101-186.483 113.598-261.175 291.54-260.996 177.911-0.201 320.674 74.573 291.537 260.996h22.639c37.154-1.455 70.050 29.12 69.824 67.499 0 37.214-30.285 67.499-67.503 67.499zM229.385 369.997c-7.326 0-26.847 0-33.885 0-12.249-0.047-22.515 10.010-22.5 22.498-0.025 12.706 10.631 22.938 23.31 22.502 12.015-0.013 36.227 0.004 48.24 0-6.045-14.656-11.1-29.687-15.165-45.001zM479.885 431.317l32.115-32.115 32.115 32.115 31.817-31.817-63.932-63.945-63.932 63.945 31.817 31.817zM376.025 263.228l32.115 32.115c-8.009 8.009-24.115 24.115-32.115 32.115 7.933 7.927 23.89 23.893 31.815 31.829l63.947-63.945-63.947-63.932-31.815 31.817zM544.115 159.369l-32.115 32.115-32.115-32.115c-7.927 7.936-23.885 23.902-31.817 31.829l63.932 63.927 63.932-63.927-31.817-31.829zM647.974 263.228l-31.817-31.817-63.945 63.932 63.945 63.945c7.927-7.936 23.885-23.902 31.817-31.829-8-8-24.111-24.111-32.115-32.115l32.115-32.115zM840.201 373.282c-3.405-2.086-7.411-3.285-11.703-3.285h-33.882c-4.066 15.313-9.122 30.345-15.168 45.001 12.454-0.004 36.604 0 49.050 0 22.805-0.222 30.861-29.918 11.703-41.715zM467.703 711.048c-1.152-1.875-2.202-3.84-3.132-5.865 7.437-16.821 9.877-36.24 6.852-54.495l-0.013-0.105h81.178c-3.085 18.599-0.529 38.405 7.215 55.47-17.903 37.428-70.272 40.285-92.1 4.995zM425.286 650.583c10.673 33.094-14.703 68.406-50.1 68.205-34.422 0.588-61.092-34.828-50.115-68.205h100.216zM608.508 699.903c-11.281-13.196-15.194-32.734-9.792-49.32h100.215c16.124 55.698-53.329 92.486-90.423 49.32zM264.5 576.634c0-15.959 12.99-28.949 28.95-28.949h437.097c15.962 0 28.954 12.99 28.954 28.949s-12.992 28.95-28.954 28.95c-42.001 0.006-434.348-0.001-437.097 0-15.96 0-28.95-12.99-28.95-28.95zM201.531 784.398l31.365 32.265 55.522-53.973-31.365-32.265-55.522 53.973zM146.954 671.181l15.389 42.298 72.789-26.483-15.39-42.298-72.789 26.483zM735.714 762.392l55.522 53.973 31.364-32.265-55.522-53.973-31.364 32.265zM789.167 686.521l72.789 26.483 15.39-42.298-72.789-26.483-15.39 42.298z" />
<glyph unicode="&#xe94a;" glyph-name="odd" d="M769.169 384.166h-46.831c12.497 15.002 23.33 31.334 32.499 48.832 95.501 178.836-41.668 401.671-242.667 399.004-201.17 2.667-338.337-220.168-242.837-399.004 9-17.498 20-33.83 32.5-48.832h-46.834c-39 0-70.833-31.834-70.833-70.835v-178.5c0-39.002 31.833-70.835 70.833-70.835h514.169c39.002 0 70.835 31.834 70.835 70.835v178.5c0 39.168-31.834 70.835-70.835 70.835zM612.002 662.668c2.667-0.5 5.333-0.667 8-0.667h0.832l59.337 1c12.164 0.167 23.334 5 31.834 12.834 14.165-24.167 24.166-51.167 28.834-79.834-13.67 3-28.501-0.167-39.834-9.5l-46.17-37.333c-2.167-1.667-4.164-3.667-5.833-5.667l-42.5 11.667c-0.333 4-1.165 8-2.5 11.834l-15.334 47.167c-1.331 4-2.999 7.667-5.167 11.167l28.501 37.334zM691.004 411.831c-8.166-9.83-17.003-19.166-26.667-27.499h-82.334l-42.167 30.669c-2.334 1.664-4.668 2.999-7.002 4.164v52.169c3.836 1.664 7.501 3.665 10.999 6.165l40.171 29.167c3.665 2.667 6.831 5.666 9.498 8.832l44.169-11.998c0.499-2.667 1.331-5.333 2.167-8l21.167-55.501c5.5-13.666 16.499-24 29.999-28.169zM449.003 694.168l19.166 56.167c4.169 12 3.166 24.667-1.835 35.5 14.835 3 30.003 4.5 45.666 4.5 15.667 0 31.002-1.5 45.67-4.5-5.167-10.833-6.003-23.5-1.835-35.5l19.166-56.167c0.836-2.5 1.835-4.834 3.166-7.167l-28.497-36.834c-4.169 1-8.333 1.5-12.834 1.5h-49.668c-4.331 0-8.666-0.5-12.834-1.5l-28.497 36.834c1.165 2.333 2.33 4.666 3.166 7.167zM491.17 471.168v-52.169c-2.5-1.165-4.834-2.667-7.002-4.169l-42.167-30.665h-82.167c-9.667 8.499-18.5 17.668-26.667 27.499 13.5 4.335 24.666 14.502 29.833 28.335l21.167 55.501c1 2.667 1.667 5.333 2.333 8l44.168 11.998c2.833-3.332 5.999-6.332 9.498-8.832l40.171-29.167c3.332-2.667 6.997-4.668 10.833-6.332zM283.334 596.001c4.667 28.667 14.667 55.667 28.834 79.834 8.333-8 19.667-12.667 31.833-12.834l60-0.833c2.667 0 5.333 0.333 8 0.667l28.835-37.167c-2.001-3.5-3.836-7.167-5.167-11.167l-15.334-47.167c-1.333-4-2-8-2.5-11.833l-42.5-11.667c-1.833 2-3.666 4-5.833 5.667l-46.167 37.167c-11.5 9.167-26.167 12.333-40 9.333zM384.001 139.499c0-12.834-8.5-21.333-21.333-21.333s-21.334 8.499-21.334 21.333v119.501l-6.333-6.336c-8.5-8.499-21.333-8.499-29.833 0-8.5 8.503-8.5 21.333 0 29.837l42.667 42.667c6.333 6.332 15 8.499 23.5 4.331 8.5-2.163 12.834-10.667 12.834-19.166v-170.833h-0.167zM554.671 246.165c0-10.667-4.335-21.333-12.834-29.833s-19.17-12.834-29.837-12.834h-42.667v-42.667h64.004c12.83 0 21.333-8.499 21.333-21.333s-8.503-21.333-21.333-21.333h-64.004c-10.667 0-21.333 4.331-29.833 12.834-8.499 8.499-12.834 19.166-12.834 29.833v42.667c0 10.667 4.335 21.333 12.834 29.833s19.166 12.834 29.833 12.834h42.667v42.667h-64c-12.83 0-21.333 8.499-21.333 21.333s8.503 21.333 21.333 21.333h64c10.667 0 21.338-4.335 29.837-12.834s12.834-19.166 12.834-29.833v-42.667zM725.338 256.832c0-10.667-4.335-23.501-10.667-32 6.332-8.499 10.667-21.333 10.667-32v-21.333c0-15.002-6.336-27.669-15.002-38.336-8.499-10.667-23.501-14.997-38.332-14.997h-53.333c-12.834 0-21.333 8.499-21.333 21.333s8.499 21.333 21.333 21.333h53.333c2.167 0 6.332 2.167 8.499 2.167s2.167 4.331 2.167 8.499v21.333c0 2.167-2.167 6.332-2.167 8.499s-6.332 2.167-8.499 2.167h-32c-12.834 0-21.333 8.499-21.333 21.333s8.499 21.333 21.333 21.333h32c2.167 0 6.332 2.167 8.499 2.167 2.167 2.167 2.167 4.331 2.167 8.499v21.333c0 2.167-2.167 6.332-2.167 8.499-2.167 0-6.332 2.167-8.499 2.167h-53.333c-12.834 0-21.333 8.499-21.333 21.333s8.499 21.333 21.333 21.333h53.333c14.997 0 27.665-6.332 38.332-15.002 8.499-10.667 15.002-23.497 15.002-38.332v-21.333z" />
<glyph unicode="&#xe94b;" glyph-name="p2p" d="M284.153 465.348c53.45 0 96.78 43.328 96.78 96.779s-43.33 96.78-96.78 96.78c-53.45 0-96.78-43.33-96.78-96.78s43.33-96.779 96.78-96.779zM426.426 290.061c10.903 17.527 11.957 39.044 2.835 57.557l-26.957 54.656c-10.067 20.403-30.451 33.079-53.195 33.079h-129.914c-22.75 0-43.134-12.676-53.207-33.084l-26.945-54.652c-9.128-18.505-8.073-40.026 2.829-57.557 10.896-17.527 29.731-27.994 50.372-27.994h183.811c20.64 0 39.469 10.466 50.372 27.994zM739.883 465.348c53.449 0 96.781 43.328 96.781 96.779s-43.332 96.78-96.781 96.78c-53.453 0-96.781-43.33-96.781-96.78s43.328-96.779 96.781-96.779zM884.992 347.618l-26.953 54.652c-9.903 20.096-30.78 33.084-53.193 33.084h-129.916c-22.746 0-43.132-12.676-53.205-33.084l-26.953-54.652c-9.122-18.513-8.060-40.030 2.829-57.557 10.901-17.527 29.73-27.994 50.377-27.994h183.817c20.638 0 39.467 10.466 50.368 27.989s11.951 39.049 2.829 57.562zM422.975 683.61c0.854 0.22 79.212 20.262 126.482 30.586v-30.659c0-3.463 1.916-6.647 4.975-8.268 3.051-1.63 6.746-1.434 9.634 0.506l103.002 69.549c2.573 1.744 4.122 4.652 4.122 7.762s-1.549 6.018-4.122 7.762l-103.002 69.549c-2.88 1.945-6.588 2.128-9.634 0.506-3.059-1.622-4.975-4.805-4.975-8.268v-29.268c-36.305-0.494-104.521-13.378-137.519-97.256-1.293-3.268-0.634-6.988 1.695-9.628 2.323-2.634 5.951-3.738 9.341-2.872zM627.895 212.39c-0.841-0.218-79.206-20.262-126.477-30.579v30.656c0 3.46-1.916 6.643-4.971 8.265-3.063 1.643-6.767 1.446-9.638-0.503l-102.993-69.551c-2.579-1.741-4.122-4.651-4.122-7.761s1.543-6.016 4.122-7.761l102.993-69.551c2.88-1.941 6.588-2.133 9.638-0.503 3.055 1.621 4.971 4.804 4.971 8.269v29.265c36.305 0.495 104.512 13.38 137.523 97.259 1.284 3.268 0.636 6.985-1.694 9.626-2.33 2.628-5.879 3.733-9.353 2.871z" />
<glyph unicode="&#xe94c;" d="M0 448c0 131.521 106.619 238.14 238.14 238.14h547.721c131.52 0 238.14-106.619 238.14-238.14s-106.62-238.14-238.14-238.14h-547.721c-131.521 0-238.14 106.62-238.14 238.14z" />
<glyph unicode="&#xe94d;" d="M294.698 328.93h-74.825v242.469h78.14c23.521 0 43.649-4.854 60.38-14.562 16.734-9.629 29.56-23.481 38.479-41.556 8.918-17.996 13.379-39.543 13.379-64.643 0-25.257-4.498-47.002-13.498-65.236-8.997-18.153-22.099-32.123-39.307-41.91-17.206-9.709-38.121-14.562-62.747-14.562zM249.234 354.978h43.57c20.047 0 36.662 3.867 49.843 11.602s23.007 18.744 29.479 33.030c6.473 14.286 9.709 31.296 9.709 51.029 0 19.574-3.196 36.426-9.59 50.554-6.394 14.207-15.943 25.099-28.651 32.676-12.71 7.656-28.534 11.484-47.475 11.484h-46.885v-190.375zM509.226 324.668c-11.524 0-21.98 2.172-31.373 6.513-9.395 4.42-16.853 10.773-22.378 19.061-5.525 8.366-8.287 18.47-8.287 30.308 0 10.419 2.053 18.865 6.156 25.336 4.106 6.551 9.59 11.683 16.458 15.391 6.866 3.71 14.443 6.473 22.73 8.29 8.368 1.893 16.772 3.393 25.219 4.498 11.050 1.419 20.008 2.486 26.874 3.196 6.947 0.788 11.997 2.091 15.155 3.908 3.236 1.815 4.853 4.972 4.853 9.471v0.947c0 11.681-3.196 20.758-9.59 27.23-6.313 6.472-15.903 9.708-28.77 9.708-13.338 0-23.797-2.92-31.373-8.761-7.578-5.841-12.905-12.076-15.984-18.706l-26.519 9.471c4.734 11.050 11.050 19.653 18.942 25.81 7.973 6.235 16.655 10.576 26.048 13.023 9.471 2.526 18.784 3.789 27.941 3.789 5.839 0 12.548-0.71 20.125-2.131 7.656-1.342 15.036-4.144 22.14-8.406 7.182-4.262 13.143-10.695 17.877-19.298 4.737-8.603 7.104-20.127 7.104-34.571v-119.814h-27.941v24.626h-1.419c-1.896-3.946-5.053-8.168-9.473-12.669-4.42-4.498-10.3-8.325-17.639-11.483-7.342-3.158-16.298-4.737-26.876-4.737zM513.488 349.767c11.050 0 20.363 2.169 27.941 6.511 7.656 4.341 13.417 9.947 17.284 16.813 3.948 6.868 5.92 14.088 5.92 21.666v25.574c-1.184-1.422-3.789-2.724-7.813-3.908-3.946-1.105-8.525-2.091-13.734-2.96-5.13-0.788-10.142-1.5-15.036-2.131-4.815-0.552-8.721-1.026-11.721-1.419-7.261-0.948-14.048-2.486-20.363-4.618-6.234-2.053-11.288-5.17-15.155-9.354-3.786-4.103-5.682-9.707-5.682-16.81 0-9.709 3.591-17.051 10.773-22.023 7.261-4.894 16.458-7.339 27.586-7.339zM514.436 535.408l28.886 54.935h32.678l-36.938-54.935h-24.626zM671.513 438.327v-109.397h-27.941v181.852h26.995v-28.414h2.367c4.263 9.235 10.733 16.654 19.416 22.258 8.683 5.683 19.892 8.524 33.625 8.524 12.312 0 23.085-2.526 32.32-7.577 9.235-4.972 16.417-12.55 21.547-22.731 5.132-10.103 7.697-22.889 7.697-38.359v-115.552h-27.941v113.657c0 14.287-3.71 25.416-11.128 33.388-7.42 8.051-17.601 12.076-30.546 12.076-8.918 0-16.891-1.934-23.916-5.801-6.944-3.867-12.431-9.511-16.455-16.93-4.027-7.419-6.039-16.417-6.039-26.992z" />
<glyph unicode="&#xe94e;" glyph-name="phone" d="M881.984 156.463c-5.103-5.082-11.251-11.584-17.771-18.458-16.273-17.271-36.604-38.737-49.344-47.445-67.034-45.807-156.719-23.889-220.156 2.543-83.682 34.867-174.793 99.136-256.599 180.954-81.883 81.822-146.146 172.962-181.014 256.597-26.4 63.45-48.365 153.151-2.55 220.201 8.7 12.75 30.218 33.047 47.465 49.35 6.9 6.501 13.35 12.644 18.45 17.727 9.054 9.009 21.308 14.067 34.081 14.067s25.027-5.058 34.081-14.067l123.343-123.307c9.005-9.054 14.059-21.304 14.059-34.074s-5.054-25.019-14.059-34.073l-33.6-33.533c-11.221-11.139-18.546-25.604-20.884-41.242s0.436-31.61 7.91-45.545c46.215-87.228 117.564-158.562 204.796-204.762 13.931-7.471 29.905-10.244 45.538-7.902s30.089 9.673 41.22 20.894l33.519 33.536c9.054 9.007 21.308 14.067 34.082 14.067 12.77 0 25.024-5.060 34.078-14.067l123.354-123.328c9.003-9.050 14.059-21.299 14.059-34.065 0-12.77-5.056-25.015-14.059-34.069z" />
<glyph unicode="&#xe94f;" glyph-name="piggy-bank" d="M540.898 484.297c-9.839 5.449-20.16 9.591-30.485 13.901-5.888 2.522-11.691 5.367-16.691 9.434-9.92 7.966-8.064 20.975 3.627 26.095 3.307 1.463 6.775 1.87 10.244 2.114 1.532 0 3.063 0.163 4.595 0.163 11.853 0 23.147-2.602 33.869-7.887 2.099-1.054 3.712-1.545 5.082-1.545 2.419 0 3.631 1.869 5.001 5.935 2.095 6.748 3.951 13.577 5.888 20.407 1.37 4.634-0.324 7.642-4.599 9.512-7.821 3.496-15.804 5.935-24.273 7.317-7.309 1.138-10.995 5.447-11.046 12.926 0 15.203 0 15.772-14.033 15.772h-8.546c-7.339-0.244-8.55-1.545-8.794-8.861-0.158-3.414 0-6.748 0-9.999 0-9.837 0-9.756-9.434-13.089-22.66-8.292-36.693-23.82-38.144-48.699-1.374-22.029 9.997-36.907 27.981-47.723 11.051-6.746 23.309-10.65 34.999-15.851 4.599-2.031 8.951-4.39 12.826-7.561 11.29-9.348 9.19-24.96-4.194-30.895-5.325-2.355-10.807-3.413-16.371-3.413-2.018 0-4.032 0.162-6.050 0.405-12.015 1.545-23.467 4.715-34.274 10.325-2.338 1.22-4.032 1.869-5.402 1.869-2.338 0-3.627-1.95-4.919-6.34-1.856-5.935-3.55-12.032-5.163-18.048-2.176-8.128-1.37-10.001 6.293-13.82 9.758-4.715 20.241-7.155 30.805-8.862 8.307-1.382 8.627-1.626 8.708-10.406 0-3.904 0-7.885 0-11.87 0-4.958 2.419-7.885 7.501-7.966 2.662 0 5.402 0 8.064 0 3.063 0 6.131 0 9.195 0.162 4.676 0.162 7.177 2.684 7.177 7.561 0 5.449 0.324 10.812 0 16.26-0.324 5.525 2.095 8.29 7.339 9.754 12.015 3.332 22.34 9.92 30.323 19.593 21.935 26.829 13.547 66.342-17.259 83.657l0.162-0.324zM878.635 509.824c-21.449 9.673-32.499 27.479-34.355 30.975l-0.158 0.325c-0.806 1.301-1.694 3.008-2.342 4.309l-66.368 115.118 60.723 96.582c1.455 2.195 1.856 5.040 1.131 7.561-0.806 2.52-2.662 4.716-5.001 5.853-83.546 37.804-149.111 9.187-173.466-4.878-6.775-3.984-14.758-5.203-22.417-3.984-71.049 12.845-137.984 12.683-199.031-0.488-49.113-10.569-94.274-29.43-134.676-56.259-68.064-45.039-98.306-96.582-100.241-99.916-2.177-3.658-4.193-7.398-6.29-11.057-67.822 15.853-67.499 83.412-67.338 86.42 0.161 5.041-3.952 9.35-8.951 9.512-5.161 0.081-9.274-3.984-9.435-9.024 0-0.976-0.323-22.926 10.322-46.991 9.113-20.568 28.064-46.015 66.935-56.746-17.903-37.316-27.58-76.177-29.193-115.848-1.533-39.676 5-80.324 19.596-120.486 21.613-59.426 53.951-99.917 63.064-110.647v-114.142c0-5.039 4.113-9.348 9.274-9.348h120.563c5 0 9.274 4.147 9.274 9.348 0 24.798 30.403 38.131 45.161 40.649 37.498 6.34 116.529 4.309 156.691-0.162 54.276-5.854 56.452-39.347 56.614-40.811 0.162-5.039 4.271-9.024 9.271-9.024h105.728c4.996 0 9.271 4.147 9.271 9.348v106.257c0 8.862 4.194 16.909 9.276 26.261 1.289 2.355 2.5 4.553 3.627 6.989 20.565 41.139 62.097 58.048 93.308 64.96 25.724 5.687 44.352 29.265 44.352 55.77v81.297c-0.482 22.601-13.952 43.17-34.837 52.356l-0.081-0.081zM505.98 289.587c-100.404 0-181.855 82.112-181.855 183.326 0 101.218 81.451 183.329 181.855 183.329 100.399 0 181.85-82.111 181.85-183.329 0-101.214-81.451-183.326-181.85-183.326z" />
<glyph unicode="&#xe950;" glyph-name="play" d="M512 874.667c-235.279 0-426.667-191.407-426.667-426.667s191.388-426.667 426.667-426.667c235.277 0 426.667 191.407 426.667 426.667s-191.39 426.667-426.667 426.667zM681.617 433.050l-248.887-160c-2.914-1.89-6.285-2.829-9.618-2.829-2.917 0-5.868 0.73-8.507 2.172-5.73 3.123-9.271 9.097-9.271 15.607v320c0 6.51 3.542 12.483 9.271 15.608 5.625 3.090 12.672 2.9 18.125-0.66l248.887-159.998c5.073-3.264 8.162-8.909 8.162-14.95s-3.089-11.682-8.162-14.95z" />
<glyph unicode="&#xe951;" glyph-name="plus" d="M554.667 789.333h-85.333v-298.667h-298.667v-85.333h298.667v-298.667h85.333v298.667h298.667v85.333h-298.667v298.667z" />
</font>
</defs>
</svg>
